<?xml version="1.0" standalone="no"?>
<!DOCTYPE svg PUBLIC "-//W3C//DTD SVG 1.1//EN" "http://www.w3.org/Graphics/SVG/1.1/DTD/svg11.dtd" >
<svg xmlns="http://www.w3.org/2000/svg">
<metadata>Generated by IcoMoon</metadata>
<defs>
<font id="icomoon" horiz-adv-x="1024">
<font-face units-per-em="1024" ascent="960" descent="-64" />
<missing-glyph horiz-adv-x="1024" />
<glyph unicode="&#x20;" horiz-adv-x="512" d="" />
<glyph unicode="&#xe900;" glyph-name="Outline-Shop" d="M200.533 486.4c0 12.8 12.8 25.6 25.6 25.6s25.6-12.8 25.6-25.6v-268.8c0-38.4 29.867-72.533 72.533-72.533h379.733c38.4 0 72.533 29.867 72.533 72.533v268.8c0 12.8 12.8 25.6 25.6 25.6s25.6-12.8 25.6-25.6v-268.8c0-64-51.2-119.467-119.467-119.467h-388.267c-64 0-119.467 51.2-119.467 119.467v268.8zM512 379.734c29.867 0 59.733-12.8 85.333-34.133 21.333-21.333 34.133-51.2 34.133-85.333v-140.8c0-12.8-12.8-25.6-25.6-25.6s-25.6 12.8-25.6 25.6v140.8c0 17.067-8.533 38.4-21.333 51.2s-29.867 21.333-51.2 21.333-38.4-8.533-51.2-21.333c-12.8-12.8-21.333-29.867-21.333-51.2v-140.8c0-12.8-12.8-25.6-25.6-25.6s-25.6 12.8-25.6 25.6v140.8c0 29.867 12.8 59.733 34.133 85.333 21.333 21.333 51.2 34.133 85.333 34.133v0zM413.867 733.867v-179.2c0-68.267-55.467-119.467-119.467-119.467s-72.533 17.067-98.133 46.933c-21.333 29.867-29.867 68.267-21.333 106.667l25.6 102.4c8.533 42.667 46.933 68.267 89.6 68.267h102.4c12.8 0 25.6-12.8 25.6-25.6zM366.933 708.267h-76.8c-21.333 0-38.4-12.8-42.667-34.133l-25.6-102.4c-4.267-21.333 0-46.933 12.8-64s34.133-29.867 59.733-29.867c42.667 0 72.533 34.133 72.533 72.533v153.6zM631.467 759.467h102.4c42.667 0 81.067-29.867 89.6-68.267l25.6-102.4c8.533-38.4 0-76.8-21.333-106.667s-59.733-46.933-98.133-46.933c-68.267 0-119.467 55.467-119.467 119.467v179.2c0 12.8 12.8 25.6 25.6 25.6v0zM657.067 708.267v-153.6c0-42.667 34.133-72.533 72.533-72.533s46.933 12.8 59.733 29.867c12.8 17.067 21.333 42.667 12.8 64l-25.6 102.4c-4.267 21.333-21.333 34.133-42.667 34.133h-76.8zM392.533 759.467h243.2c4.267 0 12.8 0 17.067-8.533s8.533-8.533 8.533-17.067v-170.667c0-68.267-55.467-128-128-128h-34.133c-68.267 0-128 55.467-128 128v170.667c0 12.8 12.8 25.6 25.6 25.6v0zM413.867 708.267v-149.333c0-42.667 34.133-81.067 81.067-81.067h34.133c42.667 0 81.067 34.133 81.067 81.067v149.333s-196.267 0-196.267 0z" />
<glyph unicode="&#xe901;" d="M426.667 725.334h341.333c47.128 0 85.333-38.205 85.333-85.333v-426.667c0-47.128-38.205-85.333-85.333-85.333h-341.333c-47.128 0-85.333 38.205-85.333 85.333v426.667c0 47.128 38.205 85.333 85.333 85.333z" />
<glyph unicode="&#xe902;" d="M341.333 277.334h512v-64c0-46.933-38.4-85.333-85.333-85.333h-341.333c-46.933 0-85.333 38.4-85.333 85.333v64z" />
<glyph unicode="&#xe903;" d="M597.333 426.667h256v-149.333h-256v149.333z" />
<glyph unicode="&#xe904;" d="M597.333 576h256v-149.333h-256v149.333z" />
<glyph unicode="&#xe905;" d="M341.333 640c0 46.933 38.4 85.333 85.333 85.333h170.667v-149.333h-256v64z" />
<glyph unicode="&#xe906;" d="M341.333 576h256v-149.333h-256v149.333z" />
<glyph unicode="&#xe907;" d="M341.333 426.667h256v-149.333h-256v149.333z" />
<glyph unicode="&#xe908;" d="M597.333 426.667v-106.667c0-12.8 0-29.867-8.533-42.667h-247.467v149.333h256z" />
<glyph unicode="&#xe909;" d="M588.8 277.334c-17.067-51.2-64-85.333-119.467-85.333h-123.733c0 8.533 0 12.8 0 21.333v64h247.467z" />
<glyph unicode="&#xe90a;" d="M597.333 448v-21.333h-42.667v106.667c0 0 0 8.533 0 8.533s0 0 4.267-4.267c21.333-21.333 38.4-55.467 38.4-89.6z" />
<glyph unicode="&#xe90b;" d="M256 618.667h213.333c47.128 0 85.333-38.205 85.333-85.333v-213.333c0-47.128-38.205-85.333-85.333-85.333h-213.333c-47.128 0-85.333 38.205-85.333 85.333v213.333c0 47.128 38.205 85.333 85.333 85.333z" />
<glyph unicode="&#xe90c;" d="M448 320l-59.733 110.933 55.467 102.4h-46.933l-34.133-68.267-34.133 68.267h-46.933l59.733-102.4-59.733-110.933h46.933l38.4 72.533 38.4-72.533h46.933z" />
<glyph unicode="&#xe90d;" glyph-name="user-fill" d="M358.4 614.4c0 85.333 68.267 153.6 153.6 153.6s153.6-68.267 153.6-153.6-68.267-153.6-153.6-153.6-153.6 68.267-153.6 153.6zM780.8 238.934c0-85.333-68.267-153.6-153.6-153.6h-230.4c-85.333 0-153.6 68.267-153.6 153.6s68.267 153.6 153.6 153.6h230.4c85.333 0 153.6-68.267 153.6-153.6z" />
<glyph unicode="&#xe90e;" glyph-name="Table" d="M806.4 704h-588.8c-25.6 0-46.933-21.333-46.933-46.933v-93.867c0-25.6 21.333-46.933 46.933-46.933h128l-110.933-332.8c-4.267-17.067 0-34.133 21.333-38.4 17.067-4.267 34.133 0 38.4 21.333l42.667 132.267h349.867l42.667-132.267c4.267-17.067 21.333-25.6 38.4-21.333s25.6 21.333 21.333 38.4l-110.933 332.8h128c25.6 0 46.933 21.333 46.933 46.933v93.867c0 25.6-21.333 46.933-46.933 46.933zM358.4 362.667l51.2 153.6h204.8l51.2-153.6h-307.2zM789.333 580.267h-554.667v64h558.933v-64z" />
<glyph unicode="&#xe90f;" glyph-name="Info-Circle" d="M512 768c-187.733 0-341.333-153.6-341.333-341.333s153.6-341.333 341.333-341.333 341.333 153.6 341.333 341.333-153.6 341.333-341.333 341.333zM537.6 256c0-12.8-12.8-25.6-25.6-25.6s-25.6 12.8-25.6 25.6v204.8c0 12.8 12.8 25.6 25.6 25.6s25.6-12.8 25.6-25.6v-204.8zM512 529.067c-17.067 0-34.133 17.067-34.133 34.133s17.067 34.133 34.133 34.133 34.133-17.067 34.133-34.133-17.067-34.133-34.133-34.133z" />
<glyph unicode="&#xe910;" glyph-name="Outline-Buy" d="M307.2 576l21.333-243.2c0-17.067 17.067-34.133 34.133-34.133h371.2c17.067 0 34.133 12.8 34.133 29.867l34.133 221.867c0 4.267 0 8.533 0 17.067 0 4.267-8.533 8.533-12.8 8.533-8.533 0-302.933 0-477.867 0v0zM362.667 247.467c-46.933 0-81.067 34.133-85.333 81.067l-29.867 371.2-51.2 8.533c-12.8 0-21.333 17.067-21.333 29.867s17.067 21.333 29.867 21.333l72.533-12.8c12.8 0 21.333-12.8 21.333-21.333l8.533-93.867c486.4 0 490.667 0 490.667 0 17.067 0 34.133-12.8 46.933-29.867s17.067-34.133 12.8-51.2l-34.133-221.867c-4.267-42.667-42.667-76.8-85.333-76.8h-371.2zM678.4 452.267h-93.867c-12.8 0-25.6 12.8-25.6 25.6s12.8 25.6 25.6 25.6h93.867c12.8 0 25.6-12.8 25.6-25.6s-12.8-25.6-25.6-25.6zM772.267 136.534c0-23.564-19.103-42.667-42.667-42.667s-42.667 19.103-42.667 42.667c0 23.564 19.103 42.667 42.667 42.667s42.667-19.103 42.667-42.667zM388.267 136.534c0-23.564-19.103-42.667-42.667-42.667s-42.667 19.103-42.667 42.667c0 23.564 19.103 42.667 42.667 42.667s42.667-19.103 42.667-42.667z" />
<glyph unicode="&#xe911;" glyph-name="account" d="M638.75 400.44c33.63 26.458 58.176 62.741 70.225 103.799s10.999 84.851-2.999 125.286c-13.999 40.435-40.256 75.501-75.11 100.32-34.859 24.819-76.582 38.156-119.373 38.156s-84.518-13.337-119.374-38.156c-34.857-24.818-61.111-59.884-75.111-100.32s-15.048-84.228-3-125.286c12.049-41.058 36.595-77.342 70.224-103.799-57.624-23.087-107.904-61.38-145.478-110.793-37.574-49.417-61.034-108.1-67.88-169.796-0.495-4.506-0.099-9.062 1.167-13.414s3.377-8.414 6.212-11.947c5.725-7.142 14.052-11.716 23.15-12.715 9.097-1.003 18.22 1.651 25.36 7.377s11.714 14.054 12.715 23.151c7.532 67.055 39.505 128.981 89.81 173.952s115.415 69.828 182.892 69.828c67.473 0 132.582-24.858 182.886-69.828 50.308-44.971 82.278-106.897 89.813-173.952 0.93-8.431 4.954-16.213 11.285-21.85 6.336-5.641 14.537-8.73 23.014-8.678h3.772c8.994 1.033 17.212 5.581 22.865 12.646 5.653 7.070 8.286 16.085 7.322 25.084-6.878 61.875-30.464 120.708-68.233 170.202-37.764 49.489-88.29 87.765-146.155 110.733v0zM511.492 424.794c-27.136 0-53.666 8.047-76.228 23.121-22.565 15.078-40.151 36.506-50.536 61.577-10.385 25.073-13.102 52.661-7.808 79.277s18.362 51.064 37.551 70.253c19.189 19.188 43.637 32.256 70.252 37.551s54.204 2.577 79.275-7.808c25.071-10.385 46.502-27.971 61.577-50.535 15.078-22.563 23.125-49.091 23.125-76.228 0-36.39-14.455-71.291-40.188-97.019-25.732-25.732-60.629-40.188-97.020-40.188z" />
<glyph unicode="&#xe912;" glyph-name="Add-image" d="M852.548 462.379v-209.566c2.052-17.698 0.073-35.627-5.786-52.454-5.854-16.823-15.441-32.107-28.036-44.702-12.599-12.599-27.883-22.182-44.706-28.041s-34.756-7.834-52.454-5.781h-419.133c-17.697-2.052-35.628-0.077-52.453 5.781s-32.107 15.441-44.704 28.041c-12.597 12.595-22.183 27.878-28.040 44.702-5.857 16.828-7.834 34.756-5.783 52.454v349.28c-2.051 17.696-0.074 35.628 5.783 52.452s15.443 32.108 28.040 44.704c12.597 12.597 27.88 22.183 44.704 28.040s34.756 7.834 52.453 5.783h244.495c6.95 0 13.611-2.76 18.526-7.673 4.911-4.913 7.671-11.576 7.671-18.523s-2.761-13.611-7.671-18.523c-4.915-4.913-11.575-7.673-18.526-7.673h-244.495c-55.081 0-78.588-23.506-78.588-78.588v-323.082l88.717 88.717c6.595 6.541 15.508 10.214 24.799 10.214s18.204-3.674 24.799-10.214l32.832-32.832c3.264-3.2 7.654-4.992 12.225-4.992s8.96 1.792 12.225 4.992l172.542 172.544c6.596 6.543 15.509 10.214 24.802 10.214 9.289 0 18.202-3.672 24.798-10.214l158.571-158.575v113.515c0 6.95 2.761 13.611 7.676 18.526 4.911 4.911 11.575 7.671 18.522 7.671s13.611-2.761 18.526-7.671c4.911-4.915 7.671-11.575 7.671-18.526zM372.044 575.897c-11.596-0.032-22.706-4.666-30.889-12.883s-12.77-19.346-12.754-30.943c0.016-11.596 4.634-22.711 12.84-30.908 8.206-8.192 19.328-12.796 30.925-12.796s22.719 4.604 30.925 12.796c8.206 8.196 12.823 19.311 12.84 30.908s-4.57 22.726-12.753 30.943c-8.183 8.217-19.292 12.851-30.889 12.883h-0.244zM686.639 645.753h43.661v-43.66c0-6.948 2.761-13.611 7.671-18.523 4.915-4.913 11.575-7.673 18.526-7.673 6.946 0 13.611 2.76 18.522 7.673s7.671 11.575 7.671 18.523v43.66h43.661c6.946 0 13.611 2.76 18.526 7.672 4.911 4.913 7.671 11.576 7.671 18.523s-2.761 13.611-7.671 18.524c-4.915 4.913-11.58 7.672-18.526 7.672h-43.661v43.66c0 6.948-2.761 13.611-7.671 18.523s-11.575 7.673-18.522 7.673c-6.95 0-13.611-2.76-18.526-7.673-4.911-4.913-7.671-11.575-7.671-18.523v-43.66h-43.661c-6.946 0-13.611-2.76-18.522-7.672-4.915-4.913-7.671-11.576-7.671-18.524s2.756-13.611 7.671-18.523c4.911-4.913 11.575-7.672 18.522-7.672z" />
<glyph unicode="&#xe913;" glyph-name="Add" d="M541.257 738.743c0 16.158-13.099 29.257-29.257 29.257s-29.257-13.099-29.257-29.257v-282.82h-282.82c-16.158 0-29.257-13.099-29.257-29.257s13.099-29.257 29.257-29.257h282.82v-282.82c0-16.158 13.099-29.257 29.257-29.257s29.257 13.099 29.257 29.257v282.82h282.82c16.158 0 29.257 13.099 29.257 29.257s-13.099 29.257-29.257 29.257h-282.82v282.82z" />
<glyph unicode="&#xe914;" glyph-name="Arrow-Down" d="M489.374 233.374c12.497-12.497 32.755-12.497 45.252 0l341.333 341.332c12.497 12.497 12.497 32.758 0 45.255s-32.755 12.497-45.252 0l-318.707-318.704-318.706 318.704c-12.497 12.497-32.758 12.497-45.255 0s-12.497-32.758 0-45.255l341.335-341.332z" />
<glyph unicode="&#xe915;" glyph-name="Arrow-Left" d="M318.706 404.041c-12.497 12.497-12.497 32.755 0 45.252l341.335 341.335c12.497 12.497 32.755 12.497 45.252 0s12.497-32.758 0-45.255l-318.705-318.706 318.705-318.707c12.497-12.497 12.497-32.755 0-45.252s-32.755-12.497-45.252 0l-341.335 341.333z" />
<glyph unicode="&#xe916;" glyph-name="Arrow-Right" d="M705.293 404.041c12.497 12.497 12.497 32.755 0 45.252l-341.332 341.335c-12.497 12.497-32.758 12.497-45.255 0s-12.497-32.758 0-45.255l318.704-318.706-318.704-318.707c-12.497-12.497-12.497-32.755 0-45.252s32.758-12.497 45.255 0l341.332 341.333z" />
<glyph unicode="&#xe917;" glyph-name="Arrow-Up" d="M489.374 619.961c12.497 12.497 32.755 12.497 45.252 0l341.333-341.335c12.497-12.497 12.497-32.755 0-45.252s-32.755-12.497-45.252 0l-318.707 318.705-318.706-318.705c-12.497-12.497-32.758-12.497-45.255 0s-12.497 32.755 0 45.252l341.335 341.335z" />
<glyph unicode="&#xe918;" glyph-name="Arrow" d="M341.333 768l341.333-341.333-341.333-341.333v682.667z" />
<glyph unicode="&#xe919;" glyph-name="Arrow-1" d="M682.667 85.334l-341.333 341.333 341.333 341.333v-682.667z" />
<glyph unicode="&#xe91a;" glyph-name="Arrow-2" d="M853.333 597.334l-341.333-341.333-341.333 341.333h682.667z" />
<glyph unicode="&#xe91b;" glyph-name="Arrow-3" d="M170.667 256l341.333 341.333 341.333-341.333h-682.667z" />
<glyph unicode="&#xe91c;" glyph-name="Baby-chair" d="M277.462 85.688c13.99-2.334 27.221 7.117 29.553 21.107l53.5 321.003c2.332 13.99-7.119 27.221-21.109 29.551-13.99 2.334-27.221-7.117-29.553-21.107l-53.5-321.003c-2.331-13.99 7.119-27.221 21.109-29.551zM335.18 513.334c14.183 0 25.68 11.497 25.68 25.68v149.801c0 15.364 12.456 27.82 27.82 27.82h213.999c15.364 0 27.823-12.456 27.823-27.82v-149.801c0-14.183 11.494-25.68 25.681-25.68 14.182 0 25.677 11.497 25.677 25.68v149.801c0 43.729-35.447 79.18-79.181 79.18h-213.999c-43.729 0-79.18-35.451-79.18-79.18v-149.801c0-14.183 11.497-25.68 25.68-25.68zM713.907 85.688c13.99 2.33 23.441 15.561 21.107 29.551l-53.5 321.003c-2.33 13.99-15.561 23.441-29.551 21.107-13.99-2.33-23.441-15.561-21.111-29.551l53.5-321.003c2.334-13.99 15.565-23.441 29.555-21.107zM420.758 406.332c10.666-31.125 40.179-53.5 74.922-53.5s64.256 22.374 74.923 53.5h85.581c43.729 0 79.177 35.452 79.177 79.181v53.501c0 14.183-11.494 25.68-25.677 25.68h-428.003c-14.183 0-25.68-11.497-25.68-25.68v-53.501c0-43.729 35.449-79.181 79.18-79.181h85.577zM495.68 404.194c-15.364 0-27.819 12.454-27.819 27.819 0 14.182-11.499 25.681-25.681 25.681h-107c-15.365 0-27.82 12.454-27.82 27.819v27.821h376.642v-27.821c0-15.364-12.454-27.819-27.819-27.819h-107.004c-14.182 0-25.677-11.499-25.677-25.681 0-15.364-12.459-27.819-27.823-27.819zM273.844 218.014c0-14.182 11.497-25.681 25.68-25.681h392.333c14.182 0 25.681 11.499 25.681 25.681s-11.499 25.681-25.681 25.681h-392.333c-14.183 0-25.68-11.499-25.68-25.681z" />
<glyph unicode="&#xe91d;" glyph-name="bag" d="M537.946 718.801l4.143-0.707c38.046-6.493 67.255-34.198 74.884-68.924 3.123-14.216 3.563-28.764 1.382-42.986-65.638 9.091-132.301 9.091-197.935 0-2.183 14.222-1.744 28.77 1.38 42.986 7.631 34.726 36.841 62.431 74.883 68.924v0l4.147 0.707c12.271 2.095 24.841 2.095 37.116 0zM665.293 598.074c3.221 20.259 2.658 41.030-1.801 61.317-12.019 54.709-57.306 96.080-113.391 105.652l-4.143 0.707c-17.579 3-35.567 3-53.141 0l-4.147-0.707c-56.081-9.572-101.367-50.943-113.388-105.652-4.457-20.286-5.022-41.057-1.8-61.317-70.616-15.393-127.232-67.315-145.815-135.657l-2.7-9.933c-19.177-70.524-14.551-145.041 13.179-212.86l3.277-8.017c29.632-72.469 96.793-123.994 176.040-136.329l26.415-4.109c50.010-7.782 101.005-7.782 151.014 0l26.419 4.109c79.245 12.335 146.406 63.859 176.038 136.329l3.277 8.017c27.729 67.819 32.354 142.336 13.18 212.864l-2.701 9.929c-18.581 68.342-75.2 120.264-145.813 135.657zM602.556 560.224l-0.384-0.869c-5.291-12.041 0.179-26.091 12.224-31.382 12.041-5.291 26.091 0.18 31.381 12.221l5.35 12.174c0.58-0.116 1.165-0.233 1.749-0.352 55.258-11.182 98.398-51.072 112.273-102.097l2.697-9.929c16.422-60.386 12.476-124.181-11.302-182.34l-3.281-8.017c-23.019-56.303-75.746-97.404-139.277-107.29l-26.415-4.113c-45.158-7.027-91.213-7.027-136.371 0l-26.414 4.109c-63.529 9.89-116.257 50.991-139.278 107.294l-3.277 8.017c-23.782 58.159-27.725 121.954-11.305 182.34l2.7 9.929c13.875 51.025 57.012 90.915 112.272 102.097 0.583 0.118 1.167 0.235 1.75 0.352l5.35-12.174c5.291-12.041 19.342-17.512 31.383-12.221s17.514 19.342 12.219 31.382l-0.38 0.869c55.211 6.867 111.125 6.867 166.336 0z" />
<glyph unicode="&#xe91e;" glyph-name="Bar" d="M785.579 623.045v39.436h-145.463l50.769 62.001-30.95 25.341-71.518-87.343h-113.754c-12.292 60.137-65.612 105.519-129.329 105.519-72.785 0-132-59.215-132-132s59.215-132 132-132c22.641 0 43.968 5.734 62.609 15.819l126.722-155.386v-239.1h-79.552v-40h199.108v40h-79.552v239.1l210.91 258.612zM375.832 622.482h122.468c-8.683-13.216-13.67-28.124-14.234-42.916-0.751-19.828 6.737-37.86 20.548-49.472 10.359-8.707 23.659-13.292 37.845-13.292 4.736 0 9.57 0.511 14.426 1.549 17.847 3.817 34.714 14.291 47.488 29.492 12.783 15.201 20.198 33.616 20.894 51.855 0.303 7.991-0.751 15.679-2.999 22.784h111.236l-178.837-219.281-178.835 219.281zM585.297 601.218c-0.35-9.257-4.557-19.329-11.541-27.635-6.98-8.304-16.179-14.179-25.237-16.116-4.258-0.911-12.279-1.699-18.163 3.247-10.167 8.549-7.731 29.562 5.222 44.968 8.926 10.62 21.338 16.776 31.518 16.776 4.587 0 8.725-1.251 11.883-3.905 5.884-4.946 6.485-12.984 6.319-17.335zM345.333 544c-50.729 0-92 41.271-92 92s41.271 92 92 92c41.525 0 76.696-27.66 88.096-65.519h-109.673v-39.436l58.235-71.405c-11.239-4.902-23.632-7.64-36.657-7.64z" />
<glyph unicode="&#xe91f;" glyph-name="bathrobe" d="M739.755 85.334h-455.509v170.517h-113.579v290.059c-0.039 29.176 5.679 58.074 16.826 85.036s27.505 51.462 48.135 72.093c20.631 20.631 45.129 36.988 72.093 48.135s55.86 16.865 85.036 16.826h238.488c29.175 0.039 58.074-5.679 85.035-16.826 26.965-11.147 51.46-27.505 72.094-48.135 20.629-20.631 36.988-45.129 48.132-72.093 11.149-26.963 16.866-55.86 16.828-85.036v-289.462h-113.579v-171.115zM341.184 141.974h341.632v170.816h113.877v233.12c-0.158 43.831-17.638 85.823-48.631 116.817-30.997 30.994-72.986 48.475-116.817 48.632h-238.488c-43.831-0.157-85.823-17.638-116.817-48.632s-48.475-72.986-48.632-116.817v-232.523h113.877v-171.413zM284.25 597.48h56.939v-313.012h-56.939v313.012zM682.812 597.48h56.939v-313.012h-56.939v313.012zM371.938 728.625l52.326 22.434 170.778-398.338-52.326-22.434-170.778 398.338zM485.905 485.291l113.826 265.496 52.331-22.436-113.822-265.494-52.335 22.434zM312.864 369.728h398.274v-56.939h-398.274v56.939zM540.625 341.419h56.939v-227.755h-56.939v227.755z" />
<glyph unicode="&#xe920;" glyph-name="Bed" d="M291.274 268.126c14.367 0 26.014-11.648 26.014-26.014v-47.3c0-14.366-11.647-26.014-26.014-26.014s-26.014 11.648-26.014 26.014v47.3c0 14.366 11.647 26.014 26.014 26.014zM732.723 268.126c14.366 0 26.014-11.648 26.014-26.014v-47.3c0-14.366-11.648-26.014-26.014-26.014-14.37 0-26.014 11.648-26.014 26.014v47.3c0 14.366 11.644 26.014 26.014 26.014zM290.414 473.084h443.171c13.961 0 25.728 0 35.413-0.661 10.121-0.691 19.853-2.189 29.346-6.118 21.824-9.041 39.168-26.385 48.209-48.209 3.93-9.493 5.427-19.226 6.118-29.346 0.661-9.685 0.661-21.453 0.661-35.413v-1.724c0-13.956 0-25.728-0.661-35.413-0.691-10.121-2.189-19.853-6.118-29.346-9.041-21.824-26.385-39.168-48.209-48.209-9.493-3.93-19.226-5.427-29.346-6.118-9.685-0.661-21.453-0.661-35.413-0.661h-443.171c-13.958 0-25.727 0-35.414 0.661-10.119 0.691-19.852 2.189-29.344 6.118-21.827 9.041-39.168 26.385-48.209 48.209-3.932 9.493-5.43 19.226-6.12 29.346-0.661 9.685-0.661 21.457-0.66 35.413v1.724c0 13.956 0 25.728 0.66 35.413 0.69 10.121 2.188 19.853 6.12 29.346 9.041 21.824 26.382 39.168 48.209 48.209 9.492 3.93 19.225 5.427 29.344 6.118 9.687 0.661 21.456 0.661 35.414 0.661zM258.541 420.514c-7.47-0.508-10.879-1.412-12.975-2.278-9.078-3.759-16.291-10.974-20.051-20.053-0.868-2.095-1.771-5.504-2.281-12.975-0.526-7.701-0.54-17.685-0.54-32.734s0.014-25.033 0.54-32.734c0.51-7.471 1.412-10.88 2.281-12.975 3.76-9.079 10.973-16.294 20.051-20.053 2.097-0.866 5.505-1.771 12.975-2.278 7.704-0.529 17.687-0.542 32.735-0.542h441.447c15.049 0 25.033 0.013 32.734 0.542 7.471 0.508 10.88 1.412 12.975 2.278 9.079 3.759 16.294 10.974 20.053 20.053 0.87 2.095 1.771 5.504 2.278 12.975 0.529 7.701 0.542 17.685 0.542 32.734s-0.013 25.033-0.542 32.734c-0.508 7.471-1.408 10.88-2.278 12.975-3.759 9.079-10.974 16.294-20.053 20.053-2.095 0.866-5.504 1.771-12.975 2.278-7.701 0.529-17.685 0.542-32.734 0.542h-441.447c-15.048 0-25.031-0.013-32.735-0.542zM478.528 725.334h66.944c57.809 0 103.842 0.001 139.921-4.85 37.231-5.005 67.738-15.601 91.844-39.712 24.111-24.11 34.709-54.614 39.714-91.845 4.851-36.080 4.851-82.111 4.851-139.924v-1.937h-52.028c0 60.19-0.055 102.718-4.386 134.929-4.233 31.462-12.105 49.157-24.939 61.989-12.83 12.832-30.528 20.707-61.99 24.937-32.209 4.331-74.735 4.386-134.929 4.386h-63.061c-60.195 0-102.722-0.055-134.932-4.386-31.462-4.23-49.157-12.105-61.989-24.937s-20.707-30.527-24.937-61.989c-4.331-32.21-4.386-74.739-4.386-134.929h-52.028v1.937c0 57.813-0.001 103.844 4.85 139.924 5.006 37.231 15.601 67.735 39.712 91.846s54.614 34.706 91.846 39.711c36.080 4.851 82.112 4.85 139.923 4.85zM461.419 630.75c0.687 0 1.378 0 2.065 0h97.024c0.687 0 1.378 0 2.065 0 16.495 0.005 32.461 0.009 45.585-2.598 15.753-3.128 29.824-10.384 40.141-25.626 9.382-13.857 12.753-30.090 14.31-47.187 1.527-16.797 1.527-38.049 1.527-63.998v-44.267h-52.028v42.999c0 27.528-0.026 46.395-1.314 60.55-1.284 14.127-3.593 19.803-5.581 22.737-1.045 1.543-1.822 2.694-7.194 3.76-7.462 1.483-18.15 1.601-37.513 1.601h-97.024c-19.362 0-30.050-0.118-37.514-1.601-5.369-1.066-6.138-2.203-7.183-3.746-1.987-2.935-4.305-8.625-5.591-22.752-1.288-14.155-1.314-33.022-1.314-60.55v-42.999h-52.028v44.267c0 25.949 0 47.202 1.528 63.998 1.556 17.097 4.93 33.33 14.31 47.187 10.318 15.241 24.39 22.497 40.142 25.626 13.124 2.607 29.090 2.602 45.585 2.598z" />
<glyph unicode="&#xe921;" glyph-name="Bed2" d="M291.274 268.126c14.367 0 26.014-11.648 26.014-26.014v-47.3c0-14.366-11.647-26.014-26.014-26.014s-26.014 11.648-26.014 26.014v47.3c0 14.366 11.647 26.014 26.014 26.014zM732.723 268.126c14.366 0 26.014-11.648 26.014-26.014v-47.3c0-14.366-11.648-26.014-26.014-26.014-14.37 0-26.014 11.648-26.014 26.014v47.3c0 14.366 11.644 26.014 26.014 26.014zM290.414 473.084h443.171c13.961 0 25.728 0 35.413-0.661 10.121-0.691 19.853-2.189 29.346-6.118 21.824-9.041 39.168-26.385 48.209-48.209 3.93-9.493 5.427-19.226 6.118-29.346 0.661-9.685 0.661-21.453 0.661-35.413v-1.724c0-13.956 0-25.728-0.661-35.413-0.691-10.121-2.189-19.853-6.118-29.346-9.041-21.824-26.385-39.168-48.209-48.209-9.493-3.93-19.226-5.427-29.346-6.118-9.685-0.661-21.453-0.661-35.413-0.661h-443.171c-13.958 0-25.727 0-35.414 0.661-10.119 0.691-19.852 2.189-29.344 6.118-21.827 9.041-39.168 26.385-48.209 48.209-3.932 9.493-5.43 19.226-6.12 29.346-0.661 9.685-0.661 21.457-0.66 35.413v1.724c0 13.956 0 25.728 0.66 35.413 0.69 10.121 2.188 19.853 6.12 29.346 9.041 21.824 26.382 39.168 48.209 48.209 9.492 3.93 19.225 5.427 29.344 6.118 9.687 0.661 21.456 0.661 35.414 0.661zM258.541 420.514c-7.47-0.508-10.879-1.412-12.975-2.278-9.078-3.759-16.291-10.974-20.051-20.053-0.868-2.095-1.771-5.504-2.281-12.975-0.526-7.701-0.54-17.685-0.54-32.734s0.014-25.033 0.54-32.734c0.51-7.471 1.412-10.88 2.281-12.975 3.76-9.079 10.973-16.294 20.051-20.053 2.097-0.866 5.505-1.771 12.975-2.278 7.704-0.529 17.687-0.542 32.735-0.542h441.447c15.049 0 25.033 0.013 32.734 0.542 7.471 0.508 10.88 1.412 12.975 2.278 9.079 3.759 16.294 10.974 20.053 20.053 0.87 2.095 1.771 5.504 2.278 12.975 0.529 7.701 0.542 17.685 0.542 32.734s-0.013 25.033-0.542 32.734c-0.508 7.471-1.408 10.88-2.278 12.975-3.759 9.079-10.974 16.294-20.053 20.053-2.095 0.866-5.504 1.771-12.975 2.278-7.701 0.529-17.685 0.542-32.734 0.542h-441.447c-15.048 0-25.031-0.013-32.735-0.542zM478.528 725.334h66.944c57.809 0 103.842 0.001 139.921-4.85 37.231-5.005 67.738-15.601 91.844-39.712 24.111-24.11 34.709-54.614 39.714-91.845 4.851-36.080 4.851-82.111 4.851-139.924v-1.937h-52.028c0 60.19-0.055 102.718-4.386 134.929-4.233 31.462-12.105 49.157-24.939 61.989-12.83 12.832-30.528 20.707-61.99 24.937-32.209 4.331-74.735 4.386-134.929 4.386h-63.061c-60.195 0-102.722-0.055-134.932-4.386-31.462-4.23-49.157-12.105-61.989-24.937s-20.707-30.527-24.937-61.989c-4.331-32.21-4.386-74.739-4.386-134.929h-52.028v1.937c0 57.813-0.001 103.844 4.85 139.924 5.006 37.231 15.601 67.735 39.712 91.846s54.614 34.706 91.846 39.711c36.080 4.851 82.112 4.85 139.923 4.85zM431.386 646.521c0.593 0 1.182 0 1.775 0h159.437c28.215 0.001 51.977 0.002 70.891-2.541 20.058-2.697 38.511-8.675 53.385-23.549s20.855-33.329 23.552-53.387c2.543-18.914 2.539-42.676 2.539-70.89v-49.071h-52.028v47.296c0 30.464-0.055 50.696-2.078 65.732-1.92 14.289-5.175 19.934-8.772 23.53s-9.242 6.854-23.531 8.775c-15.036 2.022-35.268 2.077-65.732 2.077h-157.662c-30.462 0-50.693-0.055-65.73-2.077-14.288-1.921-19.933-5.178-23.53-8.775s-6.854-9.242-8.775-23.53c-2.022-15.037-2.077-35.268-2.077-65.732v-47.296h-52.028v47.296c0 0.593 0 1.186 0 1.775-0.001 28.215-0.002 51.976 2.541 70.89 2.697 20.058 8.675 38.513 23.549 53.387s33.329 20.852 53.387 23.549c18.914 2.543 42.676 2.542 70.888 2.541zM485.978 447.070v157.659h52.028v-157.659h-52.028z" />
<glyph unicode="&#xe922;" glyph-name="Bottle" d="M668.604 717.322c-0.29-0.521-0.597-1.075-0.926-1.668l-2.564-4.633 28.19-16.98 2.628 4.751c0.303 0.552 0.589 1.067 0.858 1.551-0.474 0.286-0.977 0.59-1.519 0.915l-25.033 15.081c-0.58 0.35-1.126 0.677-1.634 0.983zM679.415 646.804l-47.407 28.558-85.568-42.054c-2.726-1.341-3.831-1.885-4.847-2.407-38.507-19.773-66.334-57.341-74.756-102.023-0.222-1.182-0.444-2.459-0.973-5.547l-0.026-0.158c-0.478-2.778-0.751-4.361-1.033-5.918-10.24-55.982-36.855-107.399-76.384-147.173-1.099-1.105-2.226-2.214-4.189-4.143l-25.272-24.849c-16.949-16.666-28.77-28.305-37.268-37.922-8.424-9.532-12.092-15.458-13.911-20.237-7.355-19.311-4.823-41.237 6.6-58.172 2.804-4.156 7.657-9.015 17.977-16.277 10.414-7.326 24.516-15.838 44.76-28.032l21.303-12.83c20.247-12.198 34.358-20.681 45.635-26.423 11.221-5.713 17.523-7.569 22.054-7.996 18.867-1.771 37.602 6.426 49.719 22.421 3.012 3.972 6.123 10.274 9.856 22.758 3.746 12.535 7.509 29.086 12.864 52.719l7.983 35.247c0.623 2.748 0.981 4.318 1.344 5.854 13.18 55.322 42.483 105.156 84.083 142.626 1.152 1.041 2.338 2.082 4.39 3.887l0.137 0.119c2.3 2.027 3.238 2.854 4.096 3.635 32.499 29.606 50.133 73.609 47.236 119.148-0.077 1.205-0.179 2.5-0.431 5.628l-7.974 99.56zM615.949 720.54l10.377 18.753c1.963 3.551 4.075 7.369 6.17 10.511 2.359 3.539 5.845 8.035 11.268 11.612 7.189 4.744 15.727 7.029 24.324 6.513 6.485-0.389 11.75-2.543 15.561-4.43 3.388-1.675 7.121-3.927 10.598-6.022l26.138-15.747c3.247-1.954 6.771-4.076 9.681-6.164 3.302-2.371 7.437-5.799 10.743-10.979 4.425-6.923 6.596-15.043 6.225-23.249-0.277-6.14-2.142-11.174-3.819-14.879-1.481-3.263-3.473-6.863-5.308-10.177l-11.422-20.64 8.401-104.828c0.226-2.828 0.363-4.532 0.465-6.175 3.789-59.558-19.204-117.759-62.69-157.375-1.199-1.097-2.462-2.206-4.531-4.028l-0.179-0.158c-2.219-1.95-3.187-2.803-4.113-3.639-34.261-30.857-58.633-72.132-69.628-118.272-0.299-1.254-0.593-2.551-1.259-5.495l-8.141-35.942c-5.12-22.588-9.229-40.721-13.491-54.985-4.331-14.494-9.417-27.183-17.523-37.888-21.79-28.757-56.388-44.433-92.139-41.075-13.38 1.259-26.005 6.251-39.21 12.971-12.972 6.605-28.535 15.983-47.818 27.597l-22.86 13.773c-19.29 11.618-34.851 20.992-46.811 29.406-12.214 8.593-22.51 17.408-30.057 28.599-20.142 29.854-24.463 68.053-11.626 101.756 4.803 12.612 12.798 23.586 22.734 34.829 9.735 11.017 22.76 23.821 38.927 39.718l25.788 25.357c2.112 2.074 3.036 2.982 3.919 3.87 32.599 32.802 54.768 75.443 63.312 122.167 0.232 1.268 0.458 2.581 0.968 5.559l0.041 0.236c0.478 2.787 0.767 4.47 1.071 6.085 11.045 58.589 47.734 108.831 99.8 135.568 1.434 0.736 2.935 1.474 5.38 2.675l90.735 44.594zM564.791 504.815c-19.162 15.328-45.483 18.117-67.43 7.142l-46.571-23.283c-11.763-5.884-26.066-1.114-31.948 10.65s-1.114 26.068 10.649 31.95l46.571 23.286c38.562 19.281 84.817 14.38 118.481-12.552v0c16.661-13.329 38.946-17.304 59.187-10.556l51.443 17.147c12.476 4.159 25.963-2.584 30.123-15.061s-2.586-25.962-15.061-30.122l-51.443-17.148c-35.567-11.857-74.722-4.873-104 18.547z" />
<glyph unicode="&#xe923;" glyph-name="Box" d="M511.868 795.729c29.082 0 59.695-6.114 84.433-19.882l182.199-101.335c0.004-0.003-0.009 0.003 0 0 26.001-14.404 48.038-38.548 63.484-64.739 15.445-26.195 25.899-57.134 25.899-86.824v-192.829c0-29.692-10.453-60.629-25.899-86.822s-37.461-50.325-63.467-64.73c-0.004-0.004 0.004 0 0 0l-182.289-101.389c-24.597-13.594-55.206-19.584-84.233-19.584-29.022 0-59.631 5.99-84.228 19.584l-0.068 0.038-182.202 101.338c-0.014 0.009-0.027 0.017-0.041 0.026-25.994 14.404-48.003 38.532-63.442 64.717-15.446 26.193-25.899 57.131-25.899 86.822v192.829c0 29.69 10.453 60.629 25.899 86.824 15.442 26.188 37.457 50.32 63.457 64.725 0.009 0.005-0.009-0.005 0 0l182.135 101.299c0.017 0.010 0.034 0.019 0.051 0.029 24.61 13.802 55.168 19.903 84.211 19.903zM511.868 740.263c-22.212 0-42.825-4.812-57.114-12.832l-0.094-0.054-48.123-26.765 278.011-160.539 98.944 57.313c-9.754 12.546-20.868 22.513-31.863 28.601l-0.043 0.026-182.251 101.364c-14.511 8.075-35.264 12.885-57.468 12.885zM808.721 547.9l-98.577-57.101v-106.428c0-15.317-12.416-27.733-27.729-27.733-15.317 0-27.733 12.416-27.733 27.733v74.3l-115.149-66.701v-276.399c11.439 2.159 21.687 5.641 29.841 10.142 0.009 0.004-0.009-0.004 0 0l182.255 101.367c15.287 8.465 30.805 24.427 42.573 44.39 11.772 19.964 18.214 41.242 18.214 58.65v192.829c0 7.709-1.263 16.175-3.695 24.951zM484.066 115.648v276.318l-268.884 155.605c-2.37-8.658-3.601-17.010-3.601-24.622v-192.829c0-17.408 6.44-38.686 18.211-58.65 11.77-19.964 27.288-35.925 42.573-44.39l0.046-0.026 182.181-101.325c0.013-0.009-0.009 0.004 0 0 8.064-4.45 18.193-7.919 29.474-10.082zM240.297 597.122l271.498-157.118 117.38 67.994-279.138 161.19-77.672-43.2c-11.072-6.13-22.265-16.195-32.069-28.865z" />
<glyph unicode="&#xe924;" glyph-name="Calendar" d="M711.113 711.112h-28.446v28.444c0 7.544-2.995 14.779-8.333 20.113-5.333 5.334-12.57 8.331-20.113 8.331s-14.775-2.997-20.113-8.331c-5.333-5.335-8.329-12.57-8.329-20.113v-28.444h-227.557v28.444c0 7.544-2.996 14.779-8.331 20.113s-12.569 8.331-20.113 8.331c-7.544 0-14.779-2.997-20.113-8.331s-8.331-12.57-8.331-20.113v-28.444h-28.445c-37.706-0.045-73.854-15.044-100.516-41.706s-41.661-62.811-41.706-100.517v-341.335c0.045-37.705 15.044-73.852 41.706-100.514s62.81-41.66 100.516-41.707h398.224c37.705 0.047 73.852 15.044 100.514 41.707s41.66 62.81 41.707 100.514v341.335c-0.047 37.706-15.044 73.854-41.707 100.517s-62.81 41.661-100.514 41.706zM227.555 568.889c0 22.632 8.991 44.337 24.994 60.34s37.708 24.993 60.34 24.993h398.224c22.63 0 44.335-8.99 60.339-24.993s24.994-37.708 24.994-60.34v-28.444h-568.89v28.444zM711.113 142.221h-398.224c-22.632 0-44.337 8.99-60.34 24.994s-24.994 37.709-24.994 60.339v256h568.89v-256c0-22.63-8.99-44.335-24.994-60.339s-37.709-24.994-60.339-24.994zM512 298.667c23.565 0 42.667 19.102 42.667 42.667s-19.102 42.667-42.667 42.667c-23.565 0-42.667-19.102-42.667-42.667s19.102-42.667 42.667-42.667zM369.771 298.667c23.564 0 42.667 19.102 42.667 42.667s-19.102 42.667-42.667 42.667c-23.564 0-42.667-19.102-42.667-42.667s19.103-42.667 42.667-42.667zM654.229 298.667c23.565 0 42.667 19.102 42.667 42.667s-19.102 42.667-42.667 42.667c-23.565 0-42.667-19.102-42.667-42.667s19.102-42.667 42.667-42.667z" />
<glyph unicode="&#xe925;" d="M512 768c188.513 0 341.333-152.82 341.333-341.333s-152.82-341.333-341.333-341.333c-188.513 0-341.333 152.82-341.333 341.333s152.82 341.333 341.333 341.333z" />
<glyph unicode="&#xe926;" d="M362.010 607.686c-8.569 8.569-22.463 8.569-31.032 0s-8.569-22.463 0-31.032l149.987-149.987-149.987-149.986c-8.569-8.572-8.569-22.464 0-31.031 8.569-8.572 22.463-8.572 31.032 0l149.986 149.986 149.99-149.986c8.567-8.572 22.46-8.572 31.031 0 8.567 8.567 8.567 22.46 0 31.031l-149.99 149.986 149.99 149.987c8.567 8.569 8.567 22.463 0 31.032-8.572 8.569-22.464 8.569-31.031 0l-149.99-149.988-149.986 149.988z" />
<glyph unicode="&#xe927;" glyph-name="Chair" d="M700.151 85.329c-13.931 0-27.861 10.449-27.861 27.866v174.148c0 13.935 10.449 27.866 27.861 27.866 17.417 0 27.866-10.449 27.866-27.866v-174.148c0-13.931-10.449-27.866-27.866-27.866zM351.854 85.329c-13.932 0-27.864 10.449-27.864 27.866v174.148c0 13.935 10.449 27.866 27.864 27.866s27.864-10.449 27.864-27.866v-174.148c0-13.931-10.449-27.866-27.864-27.866zM700.16 259.503h-348.299c-38.313 0-62.694 0-80.109 20.898s-17.415 41.796-13.932 76.625c0 20.898 6.966 45.278 24.381 62.694 24.381 27.861 62.694 27.861 125.388 27.861h243.808c62.694 0 97.527 0 125.389-27.861 17.417-20.898 20.898-41.796 24.384-62.694 0-34.829 3.482-59.213-13.935-76.625-17.412-20.898-41.796-20.898-80.107-20.898h-6.967zM404.106 398.823c-52.245 0-73.143 0-83.592-10.449-6.966-6.967-6.966-17.417-10.449-34.829 0-17.417 0-34.833 0-38.315 3.483 0 24.381 0 41.796 0h348.299c17.417 0 38.315 0 41.796 0 0 0 0 20.898 0 38.315 0 20.894-6.967 31.343-10.449 34.829-10.449 10.449-31.347 10.449-83.593 10.449h-243.809zM728.021 398.801h-400.542v167.185c0 69.66 0 104.49 17.415 135.837 10.449 20.898 27.864 34.83 48.762 48.762 31.347 17.415 66.176 17.415 135.837 17.415 69.658 0 104.491 0 135.838-17.415 20.898-10.449 34.829-27.864 48.759-48.762 17.417-31.347 17.417-66.177 17.417-135.837v-167.185h-3.486zM379.724 451.047h296.056v111.457c0 59.211 0 90.558-10.449 107.973-6.967 10.449-17.417 20.898-27.866 27.864-17.417 10.449-48.764 10.449-107.972 10.449-59.213 0-90.56 0-107.974-10.449-10.449-6.966-20.898-17.415-27.864-27.864-10.449-17.415-10.449-48.762-10.449-107.973v-111.457h-3.483z" />
<glyph unicode="&#xe928;" glyph-name="Chart" d="M634.88 768c-14.485 0-28.373-5.754-38.618-15.996-10.24-10.242-15.996-24.133-15.996-38.618v-150.187h-150.187c-14.484 0-28.375-5.754-38.618-15.996s-15.996-24.134-15.996-38.618v-184.32h-150.187c-14.484 0-28.375-5.756-38.618-15.996-10.242-10.244-15.996-24.132-15.996-38.618v-129.707c0-14.485 5.754-28.373 15.996-38.618 10.242-10.24 24.133-15.996 38.618-15.996h573.44c14.485 0 28.373 5.756 38.618 15.996 10.24 10.244 15.996 24.132 15.996 38.618v573.44c0 14.484-5.756 28.375-15.996 38.618-10.244 10.242-24.132 15.996-38.618 15.996h-163.84zM443.733 494.934h136.533v-341.333h-136.533v341.333zM785.067 153.6h-136.533v546.133h136.533v-546.133zM375.467 256v-102.4h-136.533v102.4h136.533z" />
<glyph unicode="&#xe929;" glyph-name="Check" d="M875.959 662.629c12.497-12.496 12.497-32.757 0.004-45.255l-455.097-455.147c-6.001-5.999-14.141-9.374-22.628-9.374s-16.627 3.371-22.628 9.374l-227.572 227.571c-12.497 12.497-12.497 32.759 0 45.257s32.758 12.497 45.255 0l204.943-204.945 432.466 432.516c12.497 12.497 32.759 12.499 45.257 0.003z" />
<glyph unicode="&#xe92a;" glyph-name="Chef-Hat-Heart" d="M361.269 672.571c26.709 56.39 84.137 95.43 150.731 95.43s124.023-39.039 150.733-95.43c2.662 0.115 5.338 0.174 8.026 0.174 100.834 0 182.575-81.741 182.575-182.572 0-69.239-38.537-129.429-95.258-160.375v-95.292c0.004-28.527 0.004-52.318-2.534-71.202-2.679-19.934-8.576-37.931-23.040-52.395-14.46-14.46-32.457-20.356-52.39-23.036-18.889-2.539-42.675-2.539-71.202-2.539h-193.815c-28.529 0-52.318 0-71.203 2.539-19.933 2.679-37.931 8.576-52.393 23.036-14.462 14.464-20.358 32.461-23.037 52.395-2.539 18.884-2.538 42.675-2.537 71.202v95.292c-56.718 30.946-95.256 91.136-95.256 160.375 0 100.832 81.741 182.572 182.574 182.572 2.689 0 5.366-0.058 8.029-0.174zM346.973 624.974c-71.619-3.274-128.678-62.375-128.678-134.801 0-55.3 33.266-102.882 80.976-123.729 8.674-3.789 14.28-12.356 14.28-21.82v-108.467c0-30.609 0.050-51.17 2.112-66.509 1.97-14.652 5.375-20.924 9.513-25.062 4.138-4.134 10.409-7.539 25.061-9.51 15.337-2.061 35.899-2.112 66.508-2.112h190.513c30.609 0 51.17 0.051 66.505 2.112 14.652 1.971 20.924 5.376 25.062 9.51 4.139 4.139 7.543 10.411 9.51 25.062 2.065 15.339 2.116 35.9 2.116 66.509v108.467c0 9.463 5.602 18.031 14.276 21.82 47.71 20.847 80.977 68.429 80.977 123.729 0 72.427-57.058 131.528-128.678 134.801 1.101-7.739 1.673-15.643 1.673-23.671v-15.876c0-13.152-10.662-23.814-23.817-23.814-13.15 0-23.812 10.662-23.812 23.814v15.876c0 13.427-2.214 26.287-6.276 38.266-15.945 47.020-60.454 80.804-112.794 80.804s-96.849-33.785-112.794-80.804c-4.062-11.979-6.275-24.839-6.275-38.266v-15.876c0-13.152-10.662-23.814-23.814-23.814s-23.814 10.662-23.814 23.814v15.876c0 8.028 0.569 15.932 1.671 23.671zM583.578 532.155c29.632-10.387 47.488-38.911 47.488-73.748 0-24.444-14.007-46.076-27.78-61.999-14.391-16.644-32.201-31.223-46.81-41.941-0.738-0.542-1.485-1.097-2.24-1.651-11.153-8.247-23.846-17.634-42.24-17.634s-31.087 9.387-42.24 17.634c-0.751 0.555-1.498 1.109-2.236 1.651-14.609 10.718-32.422 25.297-46.813 41.941-13.77 15.923-27.779 37.555-27.779 61.999 0 34.837 17.859 63.361 47.491 73.748 23.155 8.118 48.836 3.535 71.578-11.438 22.746 14.973 48.422 19.555 71.582 11.438zM567.821 487.207c-7.949 2.786-22.669 1.899-39.356-14.080-9.207-8.815-23.727-8.815-32.939 0-16.687 15.979-31.407 16.866-39.351 14.080-7.283-2.551-15.62-10.509-15.62-28.8 0-6.814 4.484-17.323 16.175-30.844 11.072-12.8 25.694-24.96 38.963-34.697 7.185-5.269 10.594-7.701 13.325-9.143 1.724-0.909 2.202-0.913 2.978-0.913s1.254 0.004 2.982 0.913c2.726 1.442 6.14 3.874 13.321 9.143 13.274 9.737 27.895 21.897 38.963 34.697 11.691 13.521 16.175 24.030 16.175 30.844 0 18.291-8.337 26.249-15.616 28.8zM265.927 236.165c0 13.154 10.662 23.817 23.814 23.817h444.527c13.154 0 23.812-10.662 23.812-23.817 0-13.15-10.658-23.812-23.812-23.812h-444.527c-13.152 0-23.814 10.662-23.814 23.812z" />
<glyph unicode="&#xe92b;" glyph-name="Close" d="M843.661 711.611c12.898 12.9 12.898 33.815 0 46.714-12.902 12.9-33.818 12.9-46.716 0l-284.945-284.943-284.944 284.943c-12.9 12.9-33.815 12.9-46.714 0s-12.9-33.815 0-46.714l284.943-284.944-284.942-284.945c-12.9-12.898-12.9-33.813 0-46.711 12.9-12.902 33.815-12.902 46.715 0l284.943 284.941 284.945-284.941c12.898-12.902 33.813-12.902 46.711 0 12.902 12.898 12.902 33.813 0 46.711l-284.941 284.945 284.945 284.944z" />
<glyph unicode="&#xe92c;" glyph-name="Closet-2" d="M454.921 768h128.465c57.472 0.001 103.842 0.002 140.322-4.903 37.897-5.095 69.875-16.004 95.283-41.411s36.314-57.385 41.408-95.28c4.907-36.481 4.907-82.852 4.907-140.321v-67.742c0-57.468 0-103.842-4.907-140.322-5.094-37.892-16-69.871-41.408-95.279-14.106-14.106-30.238-23.744-48.282-30.396v-46.989c0-17.673-14.327-32-32-32s-32 14.327-32 32v34.086c-33.57-3.017-74.428-3.017-123.324-3.017h-130.803c-48.89 0-89.749 0-123.319 3.017v-34.086c0-17.673-14.327-32-32-32s-32 14.327-32 32v46.989c-18.045 6.652-34.176 16.29-48.282 30.396-25.408 25.408-36.317 57.387-41.411 95.279-4.905 36.48-4.904 82.854-4.903 140.322v67.742c-0.001 57.469-0.002 103.84 4.903 140.321 5.095 37.895 16.004 69.873 41.411 95.28s57.385 36.317 95.28 41.411c36.481 4.905 82.852 4.904 140.321 4.903h2.338zM485.982 704h-31.061c-60.361 0-102.413-0.068-134.131-4.332-30.798-4.141-47.019-11.703-58.553-23.237s-19.096-27.756-23.237-58.553c-4.265-31.718-4.332-73.771-4.332-134.131v-63.066c0-60.361 0.068-102.413 4.332-134.131 4.141-30.797 11.703-47.019 23.237-58.551 11.534-11.537 27.756-19.098 58.553-23.241 31.718-4.262 73.771-4.331 134.131-4.331h31.061v503.573zM549.982 200.427h31.066c60.365 0 102.417 0.068 134.135 4.331 30.797 4.143 47.019 11.703 58.551 23.241 11.533 11.533 19.098 27.755 23.236 58.551 4.267 31.718 4.335 73.771 4.335 134.131v63.066c0 60.361-0.068 102.413-4.335 134.131-4.139 30.798-11.703 47.019-23.236 58.553s-27.755 19.096-58.551 23.237c-31.718 4.265-73.771 4.332-134.135 4.332h-31.066v-503.573zM644.578 515.272v-126.127c0-17.673-14.327-32-32-32s-32 14.327-32 32v126.127c0 17.673 14.327 32 32 32s32-14.327 32-32zM423.386 547.272c-17.673 0-32-14.327-32-32v-126.127c0-17.673 14.327-32 32-32s32 14.327 32 32v126.127c0 17.673-14.327 32-32 32z" />
<glyph unicode="&#xe92d;" glyph-name="Condicioner" d="M370.761 768h282.478c36.702 0 66.5 0.001 90.27-2.752 24.661-2.858 46.118-8.972 64.414-23.561 7.061-5.631 13.466-12.037 19.098-19.098 14.588-18.293 20.702-39.753 23.561-64.415 2.752-23.766 2.752-53.565 2.752-90.269v-3.243c0-49.352 0-88.656-3.614-119.845-3.716-32.081-11.55-58.871-29.581-81.476-7.1-8.909-15.181-16.99-24.090-24.090-22.605-18.031-49.391-25.865-81.476-29.581-31.185-3.614-70.494-3.614-119.846-3.614h-165.453c-49.353 0-88.66 0-119.846 3.614-32.084 3.716-58.872 11.55-81.478 29.581-8.907 7.1-16.988 15.181-24.090 24.090-18.028 22.605-25.862 49.395-29.58 81.476-3.613 31.189-3.613 70.493-3.613 119.845v3.243c0 36.704-0.001 66.502 2.752 90.269 2.858 24.663 8.972 46.122 23.561 64.415 5.631 7.061 12.037 13.467 19.098 19.098 18.293 14.589 39.753 20.703 64.415 23.561 23.766 2.753 53.565 2.753 90.269 2.752zM286.481 713.566c-19.868-2.302-30.379-6.506-37.964-12.556-4.015-3.202-7.658-6.845-10.86-10.86-6.049-7.585-10.254-18.096-12.556-37.964-2.366-20.42-2.407-47.194-2.407-85.878 0-51.372 0.041-87.661 3.267-115.501 3.162-27.29 9.086-43.132 18.575-55.027 4.674-5.862 9.992-11.179 15.852-15.855 11.898-9.489 27.738-15.411 55.028-18.573 27.842-3.226 64.131-3.268 115.5-3.268h162.167c51.371 0 87.659 0.043 115.499 3.268 27.29 3.162 43.132 9.084 55.027 18.573 5.862 4.676 11.179 9.993 15.855 15.855 9.489 11.895 15.411 27.738 18.573 55.027 3.226 27.84 3.268 64.129 3.268 115.501 0 38.684-0.043 65.457-2.406 85.878-2.304 19.868-6.507 30.379-12.557 37.964-3.2 4.015-6.844 7.658-10.859 10.86-7.586 6.049-18.095 10.254-37.965 12.556-20.42 2.366-47.194 2.407-85.879 2.407h-279.281c-38.684 0-65.457-0.041-85.878-2.407zM368.771 274.88c11.954-7.97 15.184-24.124 7.215-36.075l-9.669-14.507c-4.608-6.908-3.014-16.218 3.632-21.201 28.736-21.551 35.63-61.798 15.705-91.686l-9.668-14.502c-7.97-11.955-24.121-15.185-36.075-7.215s-15.185 24.119-7.215 36.075l9.668 14.502c4.608 6.912 3.014 16.222-3.632 21.205-28.736 21.551-35.63 61.798-15.705 91.686l9.669 14.502c7.969 11.951 24.12 15.181 36.075 7.215zM526.43 274.88c11.955-7.97 15.185-24.124 7.215-36.075l-9.668-14.507c-4.608-6.908-3.012-16.218 3.631-21.201 28.736-21.551 35.631-61.798 15.706-91.686l-9.668-14.502c-7.97-11.955-24.119-15.185-36.075-7.215s-15.185 24.119-7.215 36.075l9.668 14.502c4.608 6.912 3.012 16.222-3.631 21.205-28.736 21.551-35.631 61.798-15.706 91.686l9.668 14.502c7.97 11.951 24.119 15.181 36.075 7.215zM684.092 274.88c11.951-7.97 15.181-24.124 7.215-36.075l-9.668-14.507c-4.608-6.908-3.017-16.218 3.631-21.201 28.736-21.551 35.631-61.798 15.706-91.686l-9.668-14.502c-7.97-11.955-24.124-15.185-36.075-7.215-11.955 7.97-15.185 24.119-7.215 36.075l9.668 14.502c4.608 6.912 3.012 16.222-3.635 21.205-28.732 21.551-35.627 61.798-15.701 91.682zM684.092 274.88c-11.955 7.966-28.109 4.736-36.075-7.215zM648.017 267.665l-9.668-14.502zM638.349 253.159v0.004l21.645-14.43zM645.359 399.945c-2.948 0.589-7.095 0.713-22.993 0.713h-204.96c-15.048 0-25.031-0.013-32.735-0.538-7.47-0.512-10.879-1.412-12.975-2.283-9.078-3.759-16.291-10.974-20.051-20.049-1.618-3.908-2.629-10.146-2.784-30.148-0.112-14.366-11.849-25.924-26.215-25.809-14.367 0.111-25.923 11.849-25.811 26.214 0.145 18.59 0.654 34.953 6.743 49.651 9.041 21.828 26.382 39.168 48.209 48.209 9.492 3.934 19.225 5.431 29.344 6.118 9.687 0.661 21.456 0.661 35.414 0.661h205.822c0.815 0 1.626 0 2.423 0 12.258 0.009 22.046 0.013 30.72-1.711 35.337-7.027 62.959-34.65 69.986-69.986 1.724-8.674 1.719-18.462 1.711-30.72 0-0.798 0-1.609 0-2.428 0-14.366-11.644-26.014-26.014-26.014-14.366 0-26.014 11.648-26.014 26.014 0 15.902-0.124 20.049-0.713 22.997-2.923 14.694-14.413 26.185-29.107 29.107zM296.791 537.028c0 14.367 11.647 26.014 26.014 26.014h378.383c14.366 0 26.014-11.647 26.014-26.014s-11.648-26.013-26.014-26.013h-378.383c-14.367 0-26.014 11.646-26.014 26.013zM296.791 615.862c0 14.367 11.647 26.014 26.014 26.014h378.383c14.366 0 26.014-11.647 26.014-26.014s-11.648-26.014-26.014-26.014h-378.383c-14.367 0-26.014 11.647-26.014 26.014z" />
<glyph unicode="&#xe92e;" glyph-name="Dashboard-1" d="M499.2 64.009c-93.867 0-183.467 38.4-247.467 102.4-136.533 136.533-136.533 362.665 0 499.198 51.2 51.2 115.2 85.333 187.733 98.133l29.867 4.26c0 4.267 0-170.66 0-170.66h-17.067c-29.867-12.8-59.733-29.867-81.067-51.2-72.533-72.532-72.533-187.732 0-260.265s89.6-55.467 145.067-51.2h21.333l59.733-157.867c-21.333-8.533-68.267-12.8-85.333-12.8h-12.8zM418.133 704.007c-51.2-12.8-93.867-38.4-132.267-76.8-115.2-119.465-115.2-307.198 0-426.665 64-64 149.333-93.867 234.667-85.333l-25.6 68.267c-59.733 0-119.467 25.6-162.133 68.267-89.6 89.6-89.6 238.933 0 332.798 25.6 25.6 51.2 42.667 85.333 55.467v64zM678.4 384.005h170.667v-29.867c-17.067-68.267-51.2-136.533-102.4-187.733-21.333-21.333-46.933-42.667-76.8-55.467l-25.6-17.067-59.733 162.133 17.067 12.8c8.533 4.267 17.067 12.8 21.333 21.333 21.333 21.333 38.4 51.2 46.933 81.067v17.067l8.533-4.267zM716.8 332.805c-12.8-29.867-29.867-59.733-55.467-85.333-4.267-4.267-8.533-8.533-12.8-12.8l25.6-68.267c12.8 8.533 25.6 21.333 38.4 34.133 38.4 38.4 64 85.333 76.8 132.267h-72.533zM529.062 768h29.867c68.267-17.067 136.533-51.2 187.733-102.4 55.467-55.467 85.333-119.467 98.133-187.733v-29.867c4.267 0-166.4 0-166.4 0v17.067c-12.8 29.867-29.867 55.467-51.2 81.067s-51.2 38.4-81.067 46.933h-17.067v174.933zM580.262 704v-72.533c29.867-12.8 59.733-29.867 85.333-55.467s42.667-55.467 55.467-85.333h72.533c-12.8 46.933-38.4 93.867-76.8 132.267s-85.333 64-132.267 76.8l-4.267 4.267z" />
<glyph unicode="&#xe92f;" glyph-name="Dashboard" d="M142.938 767.996c0 15.317 12.416 27.733 27.733 27.733h682.667c15.317 0 27.733-12.416 27.733-27.733s-12.416-27.733-27.733-27.733h-6.733v-385.28c0-37.060-9.805-69.931-33.297-93.423s-56.363-33.297-93.423-33.297h-180.186v-57.506l121.229-60.621c13.7-6.852 19.251-23.509 12.403-37.21-6.852-13.7-23.509-19.251-37.21-12.403l-124.16 62.084-124.128-62.063c-13.7-6.848-30.358-1.297-37.208 12.403s-1.297 30.357 12.403 37.205l121.204 60.604v57.506h-180.433c-37.074 0-69.92 9.809-93.441 33.271-23.509 23.45-33.425 56.269-33.62 93.303v385.425h-6.067c-15.317 0-27.733 12.417-27.733 27.733zM232.204 740.263v-385.203c0.158-27.776 7.476-44.433 17.324-54.255 9.844-9.818 26.491-17.075 54.271-17.075h207.104c0.35 0.013 0.704 0.021 1.062 0.021 0.354 0 0.708-0.009 1.062-0.021h206.857c27.789 0 44.416 7.262 54.204 17.050s17.050 26.411 17.050 54.204v385.28h-558.934zM686.878 580.971c9.818-11.757 8.243-29.247-3.511-39.063l-107.968-90.144c-9.916-7.932-22.716-11.785-35.712-9.621-13.103 2.185-24.115 10.121-30.921 21.329l-0.077 0.124-34.603 57.67-97.921-81.76c-11.757-9.813-29.246-8.243-39.063 3.516s-8.243 29.248 3.514 39.066l107.456 89.716c0.013 0.011 0.026 0.021 0.038 0.031 10.078 8.449 23.185 12.431 36.429 10.1 13.175-2.318 24.013-10.436 30.677-21.411l0.077-0.124 34.603-57.67 97.92 81.756c11.759 9.816 29.248 8.243 39.061-3.514z" />
<glyph unicode="&#xe930;" glyph-name="date-1" d="M780.19 694.858h-73.143v48.761c0 13.466-10.914 24.381-24.38 24.381s-24.38-10.916-24.38-24.381v-48.761h-292.573v48.761c0 13.466-10.915 24.381-24.38 24.381s-24.381-10.916-24.381-24.381v-48.761h-73.143c-40.396 0-73.143-32.748-73.143-73.143v-463.238c0-40.397 32.747-73.143 73.143-73.143h536.381c40.397 0 73.143 32.747 73.143 73.143v463.238c0 40.396-32.747 73.143-73.143 73.143zM804.57 158.477c0-13.466-10.914-24.384-24.38-24.384h-536.381c-13.466 0-24.381 10.918-24.381 24.384v316.954h585.141v-316.954zM804.57 524.191h-585.141v97.524c0 13.466 10.915 24.381 24.381 24.381h73.143v-48.761c0-13.466 10.916-24.381 24.381-24.381s24.381 10.915 24.381 24.381v48.761h292.572v-48.761c0-13.466 10.914-24.381 24.38-24.381s24.384 10.915 24.384 24.381v48.761h73.139c13.47 0 24.384-10.916 24.384-24.381l-0.004-97.524zM657.075 420.574c-8.414 8.124-21.751 8.124-30.161 0l-158.332-158.332-71.494 71.492c-8.625 8.329-22.368 8.090-30.698-0.533-8.126-8.414-8.126-21.751 0-30.165l86.84-86.839c8.478-8.478 22.221-8.478 30.699 0l173.679 173.679c8.329 8.623 8.090 22.366-0.533 30.699z" />
<glyph unicode="&#xe931;" glyph-name="delivery-1" d="M686.251 381.5c-47.45 0-86.054-38.601-86.054-86.050s38.605-86.050 86.054-86.050c47.454 0 86.050 38.601 86.050 86.050s-38.601 86.050-86.050 86.050zM686.251 252.425c-23.731 0-43.025 19.298-43.025 43.025s19.294 43.025 43.025 43.025c23.727 0 43.025-19.298 43.025-43.025 0-23.731-19.298-43.025-43.025-43.025zM392.249 381.5c-47.45 0-86.051-38.601-86.051-86.050s38.602-86.050 86.051-86.050c47.448 0 86.053 38.601 86.053 86.050s-38.605 86.050-86.053 86.050zM392.249 252.425c-23.728 0-43.026 19.298-43.026 43.025s19.298 43.025 43.026 43.025c23.721 0 43.023-19.298 43.023-43.025 0-23.731-19.296-43.025-43.023-43.025zM744.205 627.799c-3.661 7.264-11.093 11.847-19.226 11.847h-113.301v-43.025h100.032l58.581-116.514 38.451 19.337-64.538 128.356zM621.717 316.229h-162.782v-43.025h162.782v43.025zM327.703 316.229h-74.576c-11.883 0-21.512-9.63-21.512-21.513s9.631-21.513 21.512-21.513h74.577c11.883 0 21.512 9.634 21.512 21.513 0 11.883-9.631 21.513-21.513 21.513zM848.815 447.749l-42.317 54.498c-4.066 5.248-10.338 8.32-16.986 8.32h-156.326v150.588c0 11.883-9.634 21.512-21.513 21.512h-358.547c-11.883 0-21.512-9.631-21.512-21.512s9.631-21.512 21.512-21.512h337.034v-150.589c0-11.883 9.63-21.513 21.508-21.513h167.305l31.33-40.358v-110.946h-59.516c-11.883 0-21.513-9.63-21.513-21.513s9.63-21.513 21.513-21.513h81.028c11.883 0 21.513 9.63 21.513 21.513v139.827c0 4.779-1.591 9.425-4.514 13.197zM326.273 425.229h-98.959c-11.883 0-21.512-9.63-21.512-21.513s9.631-21.513 21.512-21.513h98.958c11.883 0 21.512 9.63 21.512 21.513s-9.629 21.513-21.511 21.513zM375.754 509.854h-183.575c-11.881 0-21.512-9.63-21.512-21.513s9.631-21.513 21.512-21.513h183.575c11.883 0 21.512 9.63 21.512 21.513s-9.629 21.513-21.512 21.513zM410.89 594.459h-183.575c-11.883 0-21.512-9.631-21.512-21.512 0-11.883 9.631-21.512 21.512-21.512h183.575c11.883 0 21.511 9.631 21.511 21.512s-9.629 21.512-21.511 21.512z" />
<glyph unicode="&#xe932;" glyph-name="dinner-1" d="M740.702 498.347c-61.44 0-112.64 51.2-112.64 112.64s6.827 129.707 6.827 133.12c0 13.653 13.653 23.893 27.307 23.893s23.893-13.653 23.893-27.307c0 0-6.827-81.92-6.827-126.293s27.307-61.44 61.44-61.44c34.133 0 61.44 27.307 61.44 61.44s-6.827 126.293-6.827 126.293c0 13.653 10.24 27.307 23.893 27.307s27.307-10.24 27.307-23.893c0 0 6.827-81.92 6.827-133.12s-51.2-112.64-112.64-112.64zM740.702 610.987c-13.653 0-27.307 10.24-27.307 27.307v102.4c0 13.653 10.24 27.307 27.307 27.307s27.307-10.24 27.307-27.307v-102.4c0-13.653-10.24-27.307-27.307-27.307zM512 85.351c-187.733 0-341.333 153.6-341.333 341.333s153.6 337.92 341.333 337.92c187.733 0 30.72 0 47.787 0 13.653 0 23.893-13.653 20.48-27.307s-13.653-23.893-27.307-20.48c-13.653 0-27.307 0-37.547 0-163.84-3.413-290.133-129.707-290.133-290.134s129.707-290.133 290.133-290.133c58.253 0 81.92 10.24 119.467 27.307 13.653 6.827 27.307 0 34.133-13.653s0-27.307-13.653-34.133c-44.373-20.48-92.16-30.72-139.947-30.72h-3.413zM512.004 211.623c-54.613 0-105.812 23.893-143.359 61.44-40.96 37.547-64.853 92.16-64.853 146.773s20.48 109.226 58.027 150.186c37.547 40.96 92.159 64.853 146.772 64.853 17.067 0 37.547 0 54.613-6.827 13.653 0 23.893-17.067 20.48-30.72s-17.067-23.893-30.72-20.48c-13.653 0-27.307 3.413-40.96 3.413-40.96 0-81.92-17.067-112.639-47.787s-44.373-71.679-44.373-112.639c0-40.96 17.067-81.92 47.787-112.64s71.679-44.373 112.639-44.373c13.653 0 27.307-10.24 27.307-23.893s-10.24-27.307-23.893-27.307c0 0-3.413 0-6.827 0zM740.702 85.329c-13.653 0-27.307 10.24-27.307 27.307v303.787c0 13.653 10.24 27.307 27.307 27.307s27.307-10.24 27.307-27.307v-303.787c0-13.653-10.24-27.307-27.307-27.307z" />
<glyph unicode="&#xe933;" glyph-name="Donut" d="M512 715.973c-159.779 0-289.306-129.527-289.306-289.306s129.527-289.306 289.306-289.306c159.778 0 289.306 129.527 289.306 289.306s-129.527 289.306-289.306 289.306zM170.667 426.667c0 188.513 152.82 341.333 341.333 341.333s341.333-152.82 341.333-341.333c0-188.514-152.819-341.333-341.333-341.333s-341.333 152.819-341.333 341.333zM511.996 495.245c-37.879 0-68.582-30.707-68.582-68.582 0-37.879 30.703-68.582 68.582-68.582 37.875 0 68.582 30.703 68.582 68.582 0 37.875-30.707 68.582-68.582 68.582zM391.386 426.663c0 66.611 53.999 120.608 120.61 120.608s120.61-53.997 120.61-120.608c0-66.611-53.999-120.61-120.61-120.61s-120.61 53.999-120.61 120.61zM179.198 375.877c-0.004 0.004-0.008 0.009 17.487 19.26s17.492 19.255 17.488 19.26l0.082-0.077 0.459-0.41c0.431-0.38 1.108-0.973 2.010-1.745 1.805-1.553 4.504-3.819 7.939-6.566 6.897-5.517 16.617-12.847 27.914-20.134 23.831-15.373 49.896-27.379 70.237-27.379 13.198 0 29.464 5.137 46.801 13.867 16.928 8.525 32.687 19.345 44.285 28.143l31.444-41.451c-13.030-9.882-31.566-22.707-52.33-33.161-20.356-10.253-45.181-19.426-70.199-19.426-36.39 0-73.389 19.529-98.439 35.686-13.143 8.478-24.318 16.913-32.207 23.223-3.958 3.166-7.124 5.824-9.335 7.723-1.107 0.951-1.977 1.711-2.59 2.253l-0.94 0.841-0.069 0.060-0.035 0.034zM214.173 414.396c0 0-0.005 0.004 0 0zM704.068 345.549c-12.941-15.356-33.284-39.497-72.081-39.497-31.556 0-56.9 15.804-74.121 30.98l34.394 39.036c12.501-11.017 26.018-17.988 39.727-17.988 13.397 0 19.652 6.029 33.399 22.306 0.35 0.414 0.704 0.836 1.067 1.263 12.941 15.356 33.284 39.497 72.081 39.497 46.754 0 80.294-34.483 95.936-53.965l-40.567-32.576c-14.204 17.69-34.172 34.513-55.369 34.513-13.397 0-19.652-6.029-33.399-22.306-0.35-0.414-0.704-0.832-1.067-1.263zM653.734 668.213c11.494-8.62 13.824-24.926 5.201-36.419l-47.296-63.064c-8.619-11.494-24.926-13.823-36.42-5.203s-13.824 24.926-5.201 36.419l47.296 63.064c8.623 11.494 24.926 13.823 36.42 5.203zM782.639 634.256c10.159-10.159 10.159-26.63 0-36.789l-31.531-31.532c-10.159-10.159-26.633-10.159-36.791 0s-10.159 26.63 0 36.789l31.531 31.532c10.159 10.159 26.633 10.159 36.791 0zM462.071 697.319c-10.159-10.159-10.159-26.63 0-36.789l31.531-31.532c10.159-10.159 26.628-10.159 36.787 0s10.159 26.63 0 36.789l-31.531 31.532c-10.159 10.159-26.628 10.159-36.787 0zM396.493 566.050c3.718-13.878 17.983-22.113 31.859-18.395l43.076 11.542c13.875 3.718 22.11 17.983 18.394 31.86-3.721 13.878-17.984 22.113-31.859 18.395l-43.075-11.542c-13.877-3.718-22.113-17.983-18.394-31.86zM661.922 451.473c14.353 0.678 25.442 12.855 24.764 27.209l-2.091 44.544c-0.674 14.351-12.855 25.438-27.209 24.764-14.349-0.675-25.438-12.855-24.764-27.206l2.095-44.542c0.674-14.353 12.855-25.442 27.204-24.768zM713.19 423.266c9.493-10.782 25.933-11.823 36.715-2.33l52.915 46.601c10.782 9.493 11.823 25.933 2.33 36.715-9.498 10.783-25.937 11.825-36.719 2.33l-52.911-46.601c-10.782-9.493-11.827-25.933-2.33-36.715zM304.414 697.319c-10.159-10.159-10.159-26.63 0-36.789l31.532-31.532c10.159-10.159 26.63-10.159 36.789 0s10.159 26.63 0 36.789l-31.532 31.532c-10.159 10.159-26.63 10.159-36.789 0zM318.573 581.009c-13.079-5.945-18.862-21.367-12.917-34.447l18.453-40.594c5.945-13.082 21.368-18.863 34.447-12.919 13.079 5.948 18.863 21.369 12.917 34.448l-18.453 40.596c-5.945 13.079-21.367 18.863-34.447 12.917zM353.931 463.424c11.594-8.486 14.114-24.764 5.629-36.356l-26.336-35.985c-8.485-11.597-24.762-14.114-36.356-5.632-11.593 8.486-14.114 24.764-5.628 36.356l26.336 35.985c8.485 11.597 24.762 14.114 36.356 5.632zM245.808 549.199c-14.345-0.799-25.326-13.076-24.527-27.421l2.48-44.522c0.799-14.349 13.076-25.327 27.421-24.529s25.326 13.077 24.527 27.422l-2.481 44.523c-0.799 14.345-13.076 25.326-27.421 24.527z" />
<glyph unicode="&#xe934;" glyph-name="Download" d="M512 768c14.165 0 25.651-11.484 25.651-25.649v-361.064l202.193 192.566 35.375-37.147-263.219-250.685-263.221 250.685 35.378 37.147 202.192-192.566v361.064c0 14.166 11.486 25.649 25.651 25.649zM221.965 251.286v-46.767c0-38.379 29.769-67.887 64.546-67.887h450.978c34.778 0 64.546 29.508 64.546 67.887v46.767h51.298v-46.767c0-64.939-50.995-119.185-115.844-119.185h-450.978c-64.85 0-115.845 54.246-115.845 119.185v46.767h51.299z" />
<glyph unicode="&#xe935;" glyph-name="Edit" d="M594.79 618.54l109.073-109.113-291.753-293.171c-9.18-9.225-20.59-15.915-33.121-19.426l-134.476-37.649 37.652 134.468c3.509 12.531 10.202 23.94 19.426 33.122l293.199 291.769zM739.981 545.718l-108.898 108.937 52.732 52.476c12.979 12.916 33.967 12.889 46.912-0.062l61.683-61.707c12.945-12.948 12.966-33.931 0.051-46.908l-52.48-52.736zM392.794 147.529c21.039 5.888 40.195 17.126 55.607 32.61l380.352 382.199c32.823 32.984 32.764 86.311-0.132 119.221l-61.683 61.707c-32.905 32.917-86.246 32.987-119.236 0.157l-382.225-380.36c-15.488-15.411-26.723-34.573-32.614-55.612l-62.195-222.118 222.128 62.195z" />
<glyph unicode="&#xe936;" glyph-name="Eye-hide" d="M831.394 670.319c10.27 8.216 11.938 23.202 3.721 33.472s-23.202 11.935-33.472 3.719l-105.587-84.468c-53.252 47.827-121.178 89.687-197.056 89.687-67.981 0-129.444-33.625-179.343-74.481-50.171-41.079-91.195-91.539-118.762-129.938l-2.273-3.162c-16.595-23.061-30.256-42.039-30.256-70.246s13.658-47.185 30.25-70.242l2.273-3.162c17.346-24.162 39.94-52.983 66.712-81.22l-100.995-80.798c-10.27-8.213-11.935-23.202-3.719-33.472s23.202-11.934 33.472-3.716l635.036 508.028zM498.999 665.101c56.448 0 111.206-30.459 159.309-72.258l-83.085-66.468c-20.638 17.21-47.223 27.594-76.224 27.594-65.758 0-119.069-53.31-119.069-119.068 0-19.541 4.721-38.012 13.079-54.298l-88.076-70.46c-26.068 27.132-48.263 55.322-65.355 79.13-19.806 27.593-23.585 34.244-23.585 45.628s3.78 18.035 23.592 45.632c26.331 36.678 64.569 83.465 110.245 120.863 45.948 37.621 96.916 63.704 149.17 63.704zM498.999 506.343c13.85 0 26.778-3.934 37.73-10.761l-105.225-84.181c-2.556 7.351-3.947 15.258-3.947 23.501 0 39.454 31.987 71.441 71.441 71.441zM765.568 549.5c-8.324 10.184-23.326 11.692-33.51 3.369s-11.691-23.325-3.366-33.509c11.127-13.619 21.086-26.799 29.722-38.822 19.814-27.601 23.595-34.253 23.595-45.636s-3.78-18.039-23.59-45.636c-26.334-36.676-64.572-83.465-110.246-120.862-45.948-37.623-96.913-63.706-149.171-63.706-44.604 0-88.327 18.987-128.99 48.196-10.682 7.671-25.562 5.231-33.234-5.453-7.672-10.679-5.233-25.562 5.449-33.233 45.232-32.486 98.595-57.139 156.775-57.139 67.981 0 129.446 33.626 179.345 74.483 50.172 41.079 91.196 91.537 118.763 129.937l2.27 3.162c16.597 23.061 30.259 42.044 30.259 70.251s-13.662 47.189-30.259 70.251l-2.274 3.162c-9.135 12.722-19.699 26.702-31.535 41.186zM618.069 434.902c0 13.15-10.662 23.812-23.812 23.812-13.154 0-23.817-10.662-23.817-23.812 0-39.458-31.983-71.445-71.441-71.445-13.15 0-23.812-10.658-23.812-23.812 0-13.15 10.662-23.812 23.812-23.812 65.762 0 119.070 53.308 119.070 119.070z" />
<glyph unicode="&#xe937;" glyph-name="Eye-show" d="M512 561.437c-67.887 0-122.922-55.035-122.922-122.922s55.035-122.923 122.922-122.923c67.887 0 122.923 55.036 122.923 122.923s-55.036 122.922-122.923 122.922zM438.246 438.516c0 40.734 33.020 73.753 73.754 73.753s73.754-33.019 73.754-73.753c0-40.734-33.020-73.754-73.754-73.754s-73.754 33.020-73.754 73.754zM512 725.334c-70.178 0-133.633-34.713-185.146-76.891-51.794-42.408-94.146-94.5-122.605-134.142l-2.347-3.264c-17.132-23.804-31.235-43.401-31.235-72.521s14.103-48.717 31.235-72.521l2.347-3.264c28.459-39.642 70.81-91.733 122.605-134.144 51.513-42.176 114.968-76.89 185.146-76.89s133.632 34.714 185.148 76.89c51.793 42.411 94.144 94.502 122.603 134.144l2.347 3.264c17.135 23.804 31.236 43.401 31.236 72.521s-14.101 48.717-31.236 72.521l-2.347 3.264c-28.459 39.642-70.81 91.734-122.603 134.142-51.516 42.178-114.97 76.891-185.148 76.891zM244.191 485.628c27.183 37.862 66.658 86.163 113.812 124.771 47.435 38.839 100.049 65.765 153.997 65.765s106.564-26.927 153.997-65.765c47.155-38.608 86.63-86.909 113.813-124.771 20.45-28.493 24.354-35.362 24.354-47.113s-3.904-18.62-24.354-47.113c-27.183-37.862-66.658-86.165-113.813-124.77-47.433-38.839-100.049-65.766-153.997-65.766s-106.562 26.927-153.997 65.766c-47.154 38.605-86.629 86.908-113.812 124.77-20.453 28.493-24.355 35.362-24.355 47.113s3.902 18.62 24.355 47.113z" />
<glyph unicode="&#xe938;" glyph-name="filter" d="M568.917 85.334c-6.157 0-12.143 1.997-17.067 5.687l-113.779 85.333c-3.533 2.65-6.4 6.089-8.375 10.035-1.975 3.951-3.004 8.307-3.004 12.723v159.855l-199.565 224.513c-14.173 15.989-23.427 35.732-26.65 56.854s-0.277 42.726 8.483 62.214c8.76 19.488 22.962 36.032 40.899 47.643s38.845 17.795 60.212 17.808h403.913c21.363-0.025 42.266-6.219 60.194-17.838 17.933-11.619 32.124-28.168 40.875-47.658s11.686-41.093 8.457-62.212c-3.23-21.12-12.489-40.856-26.667-56.839l-199.484-224.485v-245.188c0-7.543-2.995-14.78-8.329-20.113-5.338-5.338-12.57-8.333-20.113-8.333v0zM483.584 213.334l56.887-42.667v199.113c0.004 6.963 2.569 13.683 7.198 18.884l206.733 232.592c6.895 7.791 11.392 17.407 12.954 27.692 1.566 10.285 0.124 20.803-4.143 30.29s-11.183 17.542-19.917 23.195c-8.73 5.654-18.91 8.667-29.312 8.678h-403.913c-10.398-0.016-20.57-3.031-29.297-8.683s-15.639-13.703-19.905-23.185c-4.267-9.482-5.708-19.994-4.149-30.275s6.048-19.893 12.933-27.686l206.764-232.62c4.617-5.205 7.168-11.925 7.168-18.884v-156.446z" />
<glyph unicode="&#xe939;" glyph-name="Food-cart" d="M751.684 507.981v132.68c0 15.365 12.454 27.82 27.819 27.82h73.83v51.36h-73.83c-43.729 0-79.181-35.451-79.181-79.181v-132.68h51.362zM218.813 164.514c0-43.729 35.449-79.181 79.181-79.181 43.729 0 79.181 35.452 79.181 79.181s-35.451 79.181-79.181 79.181c-43.732 0-79.181-35.452-79.181-79.181zM297.993 136.696c-15.365 0-27.82 12.454-27.82 27.819s12.455 27.819 27.82 27.819c15.364 0 27.82-12.454 27.82-27.819s-12.456-27.819-27.82-27.819zM539.823 164.514c0-43.729 35.447-79.181 79.181-79.181 43.729 0 79.181 35.452 79.181 79.181s-35.452 79.181-79.181 79.181c-43.733 0-79.181-35.452-79.181-79.181zM619.004 136.696c-15.364 0-27.819 12.454-27.819 27.819s12.454 27.819 27.819 27.819c15.364 0 27.819-12.454 27.819-27.819s-12.454-27.819-27.819-27.819zM484.181 668.479v99.511h-51.358v-99.511h51.358zM377.184 507.981v79.179c0 44.913 36.408 81.321 81.321 81.321 44.911 0 81.318-36.408 81.318-81.321v-79.179h51.362v79.179c0 73.278-59.405 132.681-132.681 132.681-73.278 0-132.682-59.403-132.682-132.681v-79.179h51.361zM170.667 229.79h581.018v329.565h-501.837c-43.609 0-79.181-35.575-79.181-79.18v-250.385zM222.027 281.152v199.023c0 15.241 12.578 27.819 27.82 27.819h450.475v-226.842h-478.295z" />
<glyph unicode="&#xe93a;" glyph-name="Hanger-2" d="M501.274 715.971c-25.301 0-40.96-17.845-40.96-34.184 0-14.368-11.648-26.014-26.014-26.014-14.367 0-26.014 11.647-26.014 26.014 0 50.155 44.314 86.213 92.988 86.213 48.678 0 92.992-36.058 92.992-86.213 0-22.028-8.009-42.603-22.357-58.211-4.459-4.849-9.391-9.712-13.837-14.096-0.789-0.778-1.562-1.542-2.317-2.287-5.265-5.21-9.852-9.86-13.756-14.455-1.698-1.993-3.127-3.821-4.335-5.503 16.994-3.665 33.459-10.453 48.299-20.459l234.368-157.99c30.878-20.817 39.317-55.292 28.531-84.373-10.594-28.578-38.784-49.899-75.221-49.899h-72.444c-14.37 0-26.014 11.648-26.014 26.014 0 14.37 11.644 26.014 26.014 26.014h72.444c15.057 0 23.539 8.141 26.441 15.962 2.714 7.322 1.481 16.188-8.832 23.142l-234.368 157.989c-14.793 9.972-32.704 15.025-50.837 14.814-17.984-0.209-35.584-5.587-49.993-15.724l-223.747-157.39c-9.964-7.006-11.096-15.765-8.311-23.027 2.976-7.757 11.476-15.765 26.365-15.765h72.445c14.367 0 26.014-11.644 26.014-26.014 0-14.366-11.647-26.014-26.014-26.014h-72.445c-36.047 0-64.113 20.928-74.943 49.161-11.020 28.727-3.195 63.010 26.953 84.215l223.746 157.389c16.773 11.797 35.764 19.394 55.322 22.915 3.695 15.811 12.74 28.628 20.924 38.251 5.491 6.455 11.486 12.475 16.802 17.734 0.879 0.871 1.737 1.717 2.573 2.543 4.476 4.415 8.35 8.24 11.87 12.066 5.333 5.802 8.631 13.734 8.631 23 0 16.339-15.663 34.184-40.964 34.184zM447.151 389.602c0.589 0 1.182 0 1.775 0h127.906c28.215 0.004 51.977 0.004 70.891-2.539 20.058-2.697 38.515-8.674 53.389-23.552 14.874-14.874 20.851-33.327 23.548-53.385 2.543-18.914 2.543-42.679 2.543-70.891v-3.554c0-28.211 0-51.977-2.543-70.891-2.697-20.058-8.674-38.511-23.548-53.385-14.874-14.878-33.331-20.855-53.389-23.552-18.914-2.543-42.675-2.543-70.891-2.543h-129.681c-28.214 0-51.976 0-70.891 2.543-20.058 2.697-38.513 8.674-53.388 23.552-14.875 14.874-20.853 33.327-23.55 53.385-2.543 18.914-2.542 42.679-2.541 70.891v1.775c0 0.597 0 1.186 0 1.779-0.001 28.211-0.002 51.977 2.541 70.891 2.697 20.058 8.675 38.511 23.55 53.385 14.875 14.878 33.329 20.855 53.388 23.552 18.915 2.543 42.676 2.543 70.891 2.539zM383.193 335.497c-14.289-1.92-19.934-5.175-23.531-8.772s-6.854-9.242-8.775-23.531c-2.022-15.040-2.077-35.268-2.077-65.737 0-30.464 0.055-50.692 2.077-65.732 1.921-14.289 5.178-19.934 8.775-23.531s9.242-6.852 23.531-8.772c15.037-2.022 35.269-2.078 65.733-2.078h126.131c30.464 0 50.697 0.055 65.732 2.078 14.289 1.92 19.934 5.175 23.531 8.772s6.857 9.242 8.777 23.531c2.022 15.040 2.078 35.268 2.078 65.732 0 30.468-0.055 50.697-2.078 65.737-1.92 14.289-5.18 19.934-8.777 23.531s-9.242 6.852-23.531 8.772c-15.036 2.022-35.268 2.078-65.732 2.078h-126.131c-30.464 0-50.696-0.055-65.733-2.078z" />
<glyph unicode="&#xe93b;" glyph-name="Help" d="M512 136.534c160.235 0 290.133 129.899 290.133 290.133 0 160.236-129.899 290.133-290.133 290.133-160.236 0-290.133-129.897-290.133-290.133s129.897-290.133 290.133-290.133zM853.333 426.667c0-188.514-152.819-341.333-341.333-341.333s-341.333 152.819-341.333 341.333c0 188.513 152.82 341.333 341.333 341.333s341.333-152.82 341.333-341.333zM512 537.592c-61.269 0-110.935-49.668-110.935-110.933s49.666-110.933 110.935-110.933c61.265 0 110.933 49.668 110.933 110.933s-49.668 110.933-110.933 110.933zM349.865 426.658c0 89.544 72.59 162.133 162.135 162.133 89.54 0 162.133-72.589 162.133-162.133s-72.593-162.133-162.133-162.133c-89.546 0-162.135 72.589-162.135 162.133zM770.748 649.213l-144.043-144.044-36.207 36.205 144.043 144.043 36.207-36.204zM433.523 312.337l-143.703-144.043-36.247 36.164 143.702 144.043 36.248-36.164zM734.541 168.273l-144.043 144.043 36.207 36.207 144.043-144.043-36.207-36.207zM397.275 505.191l-143.702 144.044 36.247 36.161 143.703-144.043-36.248-36.163z" />
<glyph unicode="&#xe93c;" glyph-name="Home-WiFi-Angle" d="M466.449 703.697c-19.558-9.129-42.967-23.038-76.353-42.926l-43.666-26.012c-36.757-21.896-62.534-37.292-81.419-51.5-18.384-13.831-28.229-25.108-34.298-37.768-6.063-12.648-8.663-27.31-7.884-50.153 0.801-23.484 5.017-53.030 11.080-95.172l8.79-61.086c7.782-54.080 13.317-92.207 21.249-120.934 7.732-28.006 16.942-43.866 30.083-55.181 13.162-11.332 30.342-18.167 59.437-21.82 29.807-3.738 68.644-3.785 123.657-3.785h69.751c55.014 0 93.85 0.047 123.657 3.785 29.094 3.652 46.276 10.487 59.439 21.82 13.137 11.315 22.349 27.174 30.080 55.181 7.932 28.727 13.47 66.85 21.248 120.934l8.794 61.086c6.063 42.142 10.278 71.689 11.076 95.172 0.781 22.843-1.818 37.506-7.881 50.153-6.071 12.659-15.915 23.936-34.3 37.768-18.884 14.207-44.663 29.603-81.417 51.5l-43.669 26.012c-33.387 19.888-56.794 33.797-76.352 42.926-19.025 8.88-32.482 12.275-45.551 12.275s-26.526-3.395-45.551-12.275zM444.446 750.842c23.014 10.742 44.224 17.158 67.554 17.158s44.54-6.416 67.554-17.158c22.212-10.367 47.859-25.645 79.808-44.678l46.101-27.461c35.2-20.967 63.411-37.773 84.804-53.868 22.148-16.664 38.963-33.964 49.933-56.852 10.978-22.9 13.909-46.799 12.966-74.42-0.909-26.654-5.564-59.008-11.366-99.337l-9.259-64.333c-7.467-51.9-13.423-93.308-22.34-125.594-9.212-33.378-22.374-60.173-46.285-80.764-23.889-20.57-52.403-29.687-86.912-34.014-33.421-4.19-75.52-4.19-128.354-4.19h-73.301c-52.833 0-94.935 0-128.356 4.19-34.505 4.326-63.021 13.444-86.911 34.014-23.912 20.591-37.071 47.386-46.286 80.764-8.914 32.286-14.872 73.694-22.339 125.594l-9.257 64.333c-5.803 40.329-10.459 72.683-11.369 99.337-0.943 27.621 1.987 51.52 12.966 74.42 10.973 22.888 27.785 40.188 49.935 56.852 21.393 16.095 49.605 32.9 84.804 53.867l46.098 27.461c31.951 19.034 57.598 34.312 79.811 44.679zM682.116 418.991c-94.191 101.669-246.025 101.669-340.218 0-9.764-10.539-26.223-11.166-36.762-1.404-10.539 9.766-11.167 26.227-1.403 36.766 114.783 123.891 301.766 123.891 416.548 0 9.766-10.539 9.135-26.999-1.404-36.766-10.539-9.762-26.995-9.135-36.762 1.404zM619.055 350.929c-59.366 64.077-154.726 64.077-214.092 0-9.764-10.539-26.223-11.166-36.762-1.399-10.539 9.762-11.168 26.223-1.403 36.762 79.952 86.298 210.465 86.298 290.423 0 9.762-10.539 9.135-26.999-1.404-36.762-10.539-9.766-26.999-9.139-36.762 1.399zM555.989 282.855c-24.533 26.479-63.428 26.479-87.962 0-9.766-10.539-26.223-11.166-36.762-1.404-10.54 9.762-11.168 26.223-1.404 36.762 45.124 48.708 119.168 48.708 164.292 0 9.766-10.539 9.135-26.999-1.404-36.762s-26.995-9.135-36.762 1.404z" />
<glyph unicode="&#xe93d;" glyph-name="Home" d="M378.622 627.743c37.533 32.171 63.904 54.711 86.278 69.491 21.781 14.383 37.124 19.567 52.262 19.567 15.134 0 30.481-5.183 52.258-19.567 22.379-14.779 48.747-37.32 86.281-69.491l39.748-34.068c42.752-36.646 57.754-50.224 65.771-67.66 8.021-17.437 8.567-37.661 8.567-93.972v-168.538c0-38.199-0.055-64.273-2.684-83.814-2.526-18.812-7.010-27.695-13.103-33.788s-14.976-10.573-33.783-13.103c-18.556-2.496-42.991-2.671-78.093-2.684v170.21c0 37.705-30.562 68.267-68.267 68.267h-113.399c-37.702 0-68.266-30.562-68.266-68.267v-170.21c-35.101 0.013-59.533 0.188-78.085 2.684-18.808 2.53-27.695 7.010-33.787 13.103s-10.574 14.976-13.103 33.788c-2.628 19.541-2.682 45.615-2.682 83.814v168.538c0 56.311 0.547 76.535 8.567 93.972s23.020 31.014 65.772 67.66l39.747 34.068zM417.391 78.917c0.134 0 0.268 0 0.402 0s0.268 0 0.402 0h197.929c0.132 0 0.269 0 0.401 0 0.137 0 0.269 0 0.401 0h21.291c35.93 0 65.463 0 88.823 3.14 24.482 3.294 45.978 10.453 63.168 27.644s24.35 38.682 27.639 63.168c3.14 23.356 3.14 52.89 3.14 88.819v176.047c0.021 48.439 0.034 80.791-13.252 109.675-13.282 28.884-37.854 49.927-74.645 81.436l-45.38 38.898c-35.917 30.784-64.7 55.456-90.069 72.213-26.283 17.356-51.503 28.044-80.478 28.044s-54.199-10.687-80.478-28.044c-25.372-16.757-54.155-41.429-90.069-72.214l-45.383-38.898c-36.79-31.508-61.36-52.552-74.645-81.436s-13.272-61.235-13.253-109.675l0.002-5.692v-170.355c-0.001-35.925-0.002-65.463 3.139-88.819 3.292-24.486 10.452-45.978 27.642-63.168s38.682-24.35 63.168-27.644c23.357-3.14 52.893-3.14 88.821-3.14h21.283zM590.925 130.117h-147.533v170.21c0 9.425 7.642 17.067 17.067 17.067h113.399c9.425 0 17.067-7.642 17.067-17.067v-170.21z" />
<glyph unicode="&#xe93e;" glyph-name="Hotel" d="M770.116 768v-40.031l79.919-0.271v-602.831h-454.23v73.813c-29.005-49.105-72.619-113.348-72.619-113.348s-50.473 74.347-83.61 132.241c-46.369 81.011-68.909 137.092-68.909 171.456 0 84.1 68.421 152.519 152.521 152.519 26.273 0 51.015-6.677 72.619-18.423v204.638h81.254v40.235h293.056zM323.189 157.223c12.637 19.593 30.923 48.734 49.051 80.418 55.259 96.576 63.511 136.303 63.511 151.39 0 62.067-50.493 112.559-112.56 112.559s-112.561-50.496-112.561-112.559c0-15.083 8.251-54.814 63.509-151.39 18.128-31.689 36.412-60.826 49.050-80.418zM644.911 164.83h165.167v523.043l-79.919 0.272v39.895h-213.137v-40.235h-81.254v-195.987c24.794-27.132 39.94-63.223 39.94-102.788 0-26.214-13.133-65.084-39.94-118.007v-106.193h169.182v82.59h39.962v-82.59zM644.907 628.226v46.624h39.962v-133.208h-39.962v46.624h-39.962v-46.624h-39.962v133.208h39.962v-46.624h39.962zM248.992 389.035c0 40.913 33.286 74.197 74.199 74.197s74.199-33.284 74.199-74.197c0-40.913-33.286-74.197-74.199-74.197s-74.199 33.284-74.199 74.197zM288.951 389.035c0-18.88 15.36-34.24 34.239-34.24 18.88 0 34.239 15.36 34.239 34.24s-15.359 34.24-34.239 34.24c-18.879 0-34.239-15.36-34.239-34.24zM525.026 410.283h39.957v-39.957h-39.957v39.957zM644.911 410.283h-39.962v-39.957h39.962v39.957zM525.026 330.351h39.957v-39.962h-39.957v39.962zM644.911 330.351h-39.962v-39.962h39.962v39.962zM564.983 488.367h-39.957v-39.962h39.957v39.962zM604.949 488.367h39.962v-39.962h-39.962v39.962zM724.843 410.283h-39.957v-39.957h39.957v39.957zM684.885 330.351h39.957v-39.962h-39.957v39.962zM724.843 488.367h-39.957v-39.962h39.957v39.962z" />
<glyph unicode="&#xe93f;" glyph-name="Icon-Topbar" d="M535.812 458.42c0 13.15-10.658 23.812-23.812 23.812s-23.812-10.662-23.812-23.812v-190.511c0-13.154 10.658-23.817 23.812-23.817s23.812 10.662 23.812 23.817v190.511zM512 768c-188.513 0-341.333-152.82-341.333-341.333s152.82-341.333 341.333-341.333c188.514 0 341.333 152.819 341.333 341.333s-152.819 341.333-341.333 341.333zM218.295 426.667c0 162.209 131.497 293.705 293.705 293.705 162.21 0 293.705-131.497 293.705-293.705 0-162.21-131.494-293.705-293.705-293.705-162.209 0-293.705 131.494-293.705 293.705zM543.753 553.675c0-17.536-14.217-31.752-31.753-31.752s-31.753 14.216-31.753 31.752c0 17.536 14.217 31.752 31.753 31.752s31.753-14.216 31.753-31.752z" />
<glyph unicode="&#xe940;" glyph-name="LBath" d="M261.837 452.689c0.172 0 0.343 0 0.513 0h499.288c0.171 0 0.341 0 0.516 0 1.873 0 3.925 0 5.824-0.124 28.843-1.873 51.814-24.849 53.692-53.687 0.124-1.903 0.124-3.951 0.119-5.828 0-0.175 0-0.346 0-0.516v-0.742c0-11.78 0.004-18.79-0.495-26.603-7.386-116.365-105.37-218.099-221.376-229.85-7.782-0.785-12.553-0.964-20.557-1.267l-0.23-0.009c-23.36-0.879-46.242-1.421-67.136-1.421-20.898 0-43.776 0.542-67.136 1.421l-0.23 0.009c-8.009 0.303-12.774 0.482-20.559 1.267-116.008 11.75-213.992 113.485-221.377 229.85-0.496 7.812-0.495 14.818-0.495 26.603v0.742c0 0.171 0 0.341 0 0.516-0.001 1.877-0.002 3.925 0.122 5.828 1.875 28.838 24.85 51.814 53.69 53.687 1.903 0.124 3.951 0.124 5.828 0.124zM259.335 400.645c-2.726-0.201-4.893-2.368-5.095-5.094-0.002-0.055-0.006-0.192-0.009-0.457-0.006-0.555-0.007-1.289-0.007-2.56 0-12.715 0.011-18.057 0.391-24.047 5.774-90.97 84.009-172.198 174.696-181.385 6.067-0.614 9.404-0.742 17.502-1.050 22.938-0.862 45.129-1.382 65.182-1.382 20.049 0 42.244 0.521 65.182 1.382 8.098 0.307 11.435 0.435 17.498 1.050 90.688 9.186 168.926 90.415 174.699 181.385 0.38 5.99 0.393 11.332 0.393 24.047 0 1.271 0 2.005-0.009 2.56-0.004 0.265-0.009 0.401-0.009 0.457-0.201 2.726-2.368 4.894-5.094 5.094-0.055 0.004-0.192 0.004-0.461 0.009-0.55 0.009-1.284 0.009-2.556 0.009h-499.288c-1.268 0-2.005 0-2.556-0.009-0.265-0.004-0.405-0.004-0.459-0.009zM334.434 197.688c12.85-6.426 18.059-22.054 11.633-34.901l-31.532-63.066c-6.425-12.847-22.051-18.057-34.9-11.631s-18.059 22.050-11.633 34.901l31.532 63.061c6.425 12.851 22.051 18.057 34.9 11.635zM689.545 197.688c-12.851-6.426-18.057-22.054-11.635-34.901l31.535-63.066c6.426-12.847 22.050-18.057 34.901-11.631 12.847 6.426 18.057 22.050 11.631 34.901l-31.531 63.061c-6.426 12.851-22.050 18.057-34.901 11.635zM170.667 426.676c0 14.366 11.647 26.014 26.013 26.014h630.631c14.366 0 26.014-11.648 26.014-26.014 0-14.37-11.648-26.014-26.014-26.014h-630.631c-14.367 0-26.013 11.644-26.013 26.014zM303.419 715.973c-27.169 0-49.195-22.025-49.195-49.194v-271.639c0-14.366-11.646-26.014-26.013-26.014s-26.013 11.648-26.013 26.014v271.639c0 55.903 45.318 101.221 101.222 101.221 41.39 0 78.609-25.199 93.981-63.629v0l2.71-6.775c24.934 5.889 51.84 4.185 77.236-6.665 32.636-13.942 56.363-40.243 68.51-71.068 5.15-13.073-1.011-27.874-13.918-33.43l-187.949-80.911c-6.466-2.786-13.784-2.829-20.284-0.124s-11.624 7.93-14.205 14.479c-12.141 30.812-12.867 66.489 0.622 99.705 9.353 23.033 24.391 42.034 42.813 55.865l-3.84 9.6c-7.471 18.677-25.56 30.924-45.676 30.924zM456.905 643.089c-20.062 8.571-41.749 7.386-60.317-1.652-16.473-8.020-30.47-22.239-38.262-41.427-4.567-11.247-6.478-22.917-6.037-34.271l132.183 56.904c-7.356 8.727-16.666 15.79-27.567 20.446z" />
<glyph unicode="&#xe941;" glyph-name="Leave" d="M404.145 768c-29.828 0.002-47.997 0.004-63.669-2.479-86.135-13.642-153.688-81.196-167.331-167.331-2.482-15.673-2.481-33.841-2.479-63.669v-215.708c-0.002-29.828-0.004-48 2.479-63.671 13.642-86.135 81.196-153.69 167.331-167.33 15.673-2.483 33.842-2.483 63.67-2.479h37.838c45.286 0 87.147 14.985 120.794 40.26 11.597 8.708 13.935 25.165 5.227 36.762-8.713 11.593-25.169 13.935-36.766 5.222-24.862-18.675-55.731-29.73-89.254-29.73h-35.009c-33.527 0-47.233 0.081-58.284 1.83-63.665 10.082-113.596 60.015-123.679 123.678-1.75 11.051-1.832 24.759-1.832 58.287v210.050c0 33.526 0.081 47.232 1.832 58.284 10.083 63.665 60.015 113.596 123.679 123.679 11.051 1.751 24.757 1.832 58.284 1.832h35.009c33.523 0 64.393-11.056 89.254-29.733 11.597-8.709 28.053-6.37 36.766 5.225 8.708 11.595 6.37 28.054-5.227 36.763-33.647 25.272-75.507 40.258-120.794 40.258h-37.839zM703.356 587.275c-11.362 9.009-27.878 7.101-36.885-4.261-9.011-11.363-7.104-27.878 4.258-36.887l61.722-48.937c24.644-19.541 41.519-32.973 52.983-44.267h-448.476c-14.501 0-26.256-11.755-26.256-26.257s11.755-26.257 26.256-26.257h448.476c-11.465-11.294-28.339-24.725-52.983-44.267l-61.722-48.934c-11.362-9.011-13.269-25.527-4.258-36.89 9.007-11.362 25.523-13.269 36.885-4.262l62.972 49.933c23.543 18.667 42.97 34.069 56.811 47.855 14.204 14.148 25.975 29.85 29.171 49.916 0.683 4.275 1.024 8.589 1.024 12.907s-0.341 8.631-1.024 12.907c-3.196 20.066-14.967 35.767-29.171 49.916-13.841 13.786-33.267 29.189-56.811 47.855l-62.972 49.931z" />
<glyph unicode="&#xe942;" glyph-name="Lightning" d="M474.227 578.813h79.287c34.138 0.001 62.327 0.002 84.646-2.954 23.42-3.101 44.254-9.872 60.988-26.355 16.794-16.537 23.744-37.213 26.918-60.467 3.008-22.059 3.008-49.89 3.008-83.452v-83.955c0-33.562 0-61.389-3.008-83.452-3.174-23.253-10.125-43.93-26.918-60.467-16.734-16.482-37.568-23.253-60.988-26.351-22.319-2.957-50.509-2.957-84.646-2.957h-79.287c-34.138 0-62.326 0-84.646 2.957-23.421 3.098-44.253 9.869-60.989 26.351-16.791 16.538-23.741 37.214-26.915 60.467-3.011 22.063-3.011 49.89-3.010 83.452v83.955c-0.001 33.562-0.002 61.393 3.010 83.452 3.174 23.254 10.124 43.93 26.915 60.467 16.736 16.483 37.568 23.254 60.989 26.355 22.32 2.956 50.509 2.955 84.646 2.954zM476.032 200.431h75.678c36.399 0 61.12 0.055 79.62 2.505 17.796 2.355 25.882 6.498 31.313 11.844 5.372 5.295 9.506 13.099 11.874 30.438 2.475 18.125 2.53 42.381 2.53 78.259v80.26c0 35.883-0.055 60.134-2.53 78.263-2.368 17.335-6.502 25.143-11.874 30.434-5.431 5.347-13.517 9.49-31.313 11.846-18.5 2.45-43.221 2.504-79.62 2.504h-75.678c-36.399 0-61.119-0.054-79.622-2.504-17.795-2.356-25.882-6.5-31.311-11.846-5.374-5.291-9.507-13.099-11.873-30.434-2.475-18.129-2.532-42.381-2.532-78.263v-80.26c0-35.878 0.057-60.134 2.532-78.259 2.367-17.34 6.499-25.143 11.873-30.438 5.429-5.346 13.516-9.489 31.311-11.844 18.503-2.449 43.223-2.505 79.622-2.505zM513.869 200.418c14.366 0 26.014-11.648 26.014-26.014v-63.066c0-14.366-11.648-26.014-26.014-26.014s-26.014 11.648-26.014 26.014v63.066c0 14.366 11.648 26.014 26.014 26.014zM529.472 447.484c11.494-8.619 13.824-24.926 5.201-36.42l-16.081-21.44h42.569c9.852 0 18.863-5.568 23.266-14.383 4.407-8.811 3.456-19.358-2.453-27.238l-47.3-63.066c-8.619-11.494-24.926-13.824-36.416-5.201-11.494 8.619-13.824 24.926-5.205 36.416l16.081 21.444h-42.569c-9.852 0-18.859 5.568-23.266 14.379-4.407 8.815-3.456 19.362 2.458 27.243l47.296 63.061c8.623 11.494 24.926 13.824 36.42 5.205zM456.324 647.403c0 14.367 11.644 26.013 26.014 26.013h63.061c14.366 0 26.014-11.647 26.014-26.013s-11.648-26.014-26.014-26.014h-63.061c-14.37 0-26.014 11.647-26.014 26.014zM512.567 768h2.615c21.026 0 38.75 0.001 53.133-1.462 15.117-1.538 29.406-4.904 42.347-13.55 9.724-6.499 18.078-14.85 24.576-24.576 8.644-12.94 12.011-27.228 13.551-42.345 1.463-14.384 1.459-32.105 1.459-53.132v-80.139h-52.028v78.83c0 22.684-0.030 37.739-1.195 49.176-1.118 11.002-3.068 15.738-5.047 18.705-2.705 4.045-6.178 7.519-10.223 10.222-2.965 1.982-7.701 3.93-18.705 5.049-11.439 1.164-26.492 1.195-49.178 1.195-22.682 0-37.739-0.032-49.173-1.195-11.004-1.119-15.74-3.067-18.705-5.049-4.045-2.703-7.522-6.176-10.223-10.222-1.984-2.967-3.93-7.703-5.047-18.705-1.165-11.438-1.199-26.493-1.199-49.176v-78.83h-52.025v80.139c-0.001 21.027-0.001 38.749 1.462 53.132 1.538 15.117 4.904 29.405 13.551 42.345 6.499 9.726 14.85 18.077 24.576 24.576 12.94 8.646 27.229 12.012 42.346 13.55 14.383 1.463 32.102 1.463 53.133 1.462z" />
<glyph unicode="&#xe943;" glyph-name="Lucky-Draw" d="M434.641 740.408c13.73 28.925 43.209 48.925 77.355 48.925 34.15 0 63.629-20 77.359-48.925 151.949-35.078 265.233-171.196 265.233-333.816 0-189.21-153.382-342.592-342.592-342.592-189.206 0-342.589 153.382-342.589 342.592 0 162.621 113.285 298.736 265.235 333.816zM427.226 694.374c-124.366-36.571-215.153-151.596-215.153-287.782 0-165.645 134.281-299.925 299.923-299.925 165.645 0 299.925 134.281 299.925 299.925 0 136.187-90.786 251.212-215.151 287.782-1.873-11.223-6.716-22.282-11.733-31.694-2.172-4.071-4.548-8.148-7.053-12.175 107.533-29.024 186.654-127.222 186.654-243.93 0-139.529-113.109-252.638-252.642-252.638-139.527 0-252.637 113.109-252.637 252.638 0 116.708 79.119 214.906 186.653 243.93-2.505 4.027-4.881 8.105-7.053 12.176-5.018 9.411-9.86 20.47-11.733 31.693zM473.216 612.978c-16.495-3.078-32.311-8.087-47.207-14.781l69.693-120.71c5.239 1.199 10.692 1.83 16.294 1.83 5.606 0 11.059-0.631 16.299-1.83l69.692 120.71c-14.895 6.695-30.711 11.703-47.206 14.782-4.685-5.758-9.058-10.873-12.706-15.029-3.136-3.574-5.76-6.467-7.612-8.484-0.93-1.009-1.668-1.8-2.185-2.349l-0.602-0.64-0.166-0.178-0.051-0.053c-0.004-0.003-0.030-0.029-15.462 14.701-15.428-14.729-15.433-14.727-15.437-14.724l-0.073 0.076-0.166 0.178-0.602 0.64c-0.516 0.549-1.254 1.34-2.185 2.349-1.852 2.017-4.476 4.91-7.612 8.484-3.648 4.157-8.021 9.271-12.706 15.029zM511.996 600.946l-15.437-14.724c4.028-4.218 9.609-6.609 15.437-6.609 5.833 0 11.435 2.415 15.462 6.633l-15.462 14.701zM511.996 633.052c4.646 5.497 9.89 11.94 15.104 18.847 7.689 10.176 14.993 20.924 20.284 30.851 5.636 10.572 7.531 17.572 7.531 20.998 0 23.703-19.213 42.918-42.918 42.918-23.701 0-42.914-19.216-42.914-42.918 0-3.427 1.894-10.426 7.531-20.998 5.291-9.927 12.595-20.675 20.284-30.851 5.214-6.906 10.458-13.35 15.1-18.847zM634.918 576.831l-69.679-120.69c7.407-7.953 13.052-17.57 16.316-28.224l139.345-0.009c-6.178 61.227-38.665 114.698-85.982 148.923zM720.9 385.242l-139.345 0.009c-3.264-10.654-8.909-20.267-16.316-28.22l69.687-120.7c47.313 34.223 79.795 87.684 85.973 148.911zM597.995 214.964l-69.696 120.721c-5.239-1.199-10.697-1.835-16.303-1.835-5.602 0-11.059 0.636-16.299 1.835l-69.697-120.721c26.246-11.797 55.357-18.359 85.996-18.359 30.643 0 59.755 6.562 85.999 18.359zM389.068 236.331l69.688 120.7c-7.407 7.953-13.052 17.566-16.316 28.22l-139.345-0.009c6.178-61.227 38.66-114.688 85.973-148.911zM303.096 427.909l139.345 0.009c3.264 10.654 8.909 20.271 16.316 28.224l-69.679 120.69c-47.315-34.225-79.802-87.696-85.981-148.922zM497.293 380.352c-0.107 0.064-0.218 0.128-0.329 0.192-0.102 0.060-0.209 0.119-0.311 0.179-8.815 5.239-14.724 14.861-14.724 25.86 0 16.606 13.461 30.067 30.067 30.067 16.61 0 30.071-13.461 30.071-30.067 0-10.999-5.909-20.621-14.724-25.86-0.102-0.060-0.209-0.119-0.311-0.179-0.111-0.064-0.222-0.128-0.329-0.192-4.348-2.445-9.365-3.836-14.707-3.836-5.338 0-10.355 1.391-14.703 3.836z" />
<glyph unicode="&#xe944;" glyph-name="luggage-1" d="M365.334 84.856c11.311 0 20.48 9.169 20.48 20.48v39.996c0 11.311-9.169 20.48-20.48 20.48s-20.48-9.169-20.48-20.48v-39.996c0-11.311 9.169-20.48 20.48-20.48zM658.667 84.856c11.311 0 20.48 9.169 20.48 20.48v39.996c0 11.311-9.169 20.48-20.48 20.48s-20.48-9.169-20.48-20.48v-39.996c0-11.311 9.169-20.48 20.48-20.48zM445.333 564.042c11.311 0 20.48 9.169 20.48 20.48v131.488c0 6.362 5.158 11.52 11.52 11.52h69.333c6.362 0 11.52-5.158 11.52-11.52v-131.488c0-11.311 9.169-20.48 20.48-20.48s20.48 9.169 20.48 20.48v131.488c0 28.982-23.497 52.48-52.48 52.48h-69.333c-28.983 0-52.479-23.498-52.479-52.48v-131.488c0-11.311 9.168-20.48 20.479-20.48zM352.001 165.816c-3.417 0-6.187 2.769-6.187 6.187v385.845c0 3.417 2.769 6.187 6.187 6.187h319.999c3.418 0 6.187-2.769 6.187-6.187v-385.845c0-3.418-2.769-6.187-6.187-6.187h-319.999zM304.854 172.002c0-26.039 21.108-47.147 47.147-47.147h319.999c26.039 0 47.147 21.107 47.147 47.147v385.845c0 26.039-21.107 47.147-47.147 47.147h-319.999c-26.039 0-47.147-21.108-47.147-47.147v-385.845zM405.334 124.856c11.311 0 20.48 9.169 20.48 20.48v439.179c0 11.311-9.169 20.48-20.48 20.48s-20.48-9.169-20.48-20.48v-439.179c0-11.311 9.169-20.48 20.48-20.48zM618.667 124.856c11.311 0 20.48 9.169 20.48 20.48v439.179c0 11.311-9.169 20.48-20.48 20.48s-20.48-9.169-20.48-20.48v-439.179c0-11.311 9.169-20.48 20.48-20.48z" />
<glyph unicode="&#xe945;" glyph-name="manager" d="M624.969 411.26c32.64 25.681 56.465 60.894 68.156 100.744 11.695 39.85 10.679 82.353-2.91 121.598s-39.070 73.278-72.9 97.366c-33.83 24.088-74.33 37.033-115.857 37.033-41.532 0-82.028-12.944-115.859-37.033s-59.313-58.121-72.9-97.366c-13.587-39.244-14.605-81.748-2.911-121.598s35.517-75.063 68.157-100.744c-55.928-22.404-104.727-59.571-141.195-107.529-36.468-47.962-59.238-104.917-65.881-164.8-0.481-4.369-0.096-8.794 1.133-13.018s3.277-8.162 6.028-11.597c5.557-6.929 13.639-11.366 22.469-12.339 8.829-0.969 17.683 1.604 24.614 7.164 6.93 5.555 11.369 13.636 12.34 22.468 7.31 65.079 38.342 125.184 87.165 168.828 48.823 43.648 112.017 67.776 177.506 67.776s128.683-24.128 177.506-67.776c48.823-43.644 79.855-103.748 87.164-168.828 0.905-8.183 4.809-15.735 10.957-21.21 6.148-5.47 14.106-8.474 22.336-8.422h3.661c8.73 1.007 16.704 5.419 22.191 12.275 5.487 6.861 8.043 15.612 7.108 24.346-6.677 60.053-29.568 117.154-66.223 165.188s-85.692 85.184-141.854 107.473v0zM501.457 434.897c-26.338 0-52.087 7.812-73.984 22.443-21.9 14.635-38.968 35.43-49.047 59.764s-12.716 51.109-7.578 76.941c5.138 25.832 17.821 49.56 36.445 68.184s42.35 31.307 68.185 36.445c25.83 5.138 52.608 2.501 76.941-7.578s45.129-27.148 59.763-49.047c14.635-21.899 22.443-47.646 22.443-73.984 0-35.318-14.029-69.19-39.006-94.162-24.973-24.977-58.842-39.006-94.161-39.006zM501.449 424.896c12.292 0 23.339-7.509 27.861-18.94l79.902-201.971c4.45-11.251 1.698-24.073-6.976-32.508l-79.902-77.679c-11.631-11.307-30.144-11.307-41.771 0l-79.903 77.679c-8.674 8.435-11.426 21.257-6.975 32.508l79.902 201.971c4.523 11.43 15.569 18.94 27.861 18.94zM456.759 200.517l44.689-43.447 44.689 43.447-44.689 112.964-44.689-112.964z" />
<glyph unicode="&#xe946;" glyph-name="Master-Data" d="M265.16 665.206c0.781-1.317 3.076-4.296 9.518-8.655 10.446-7.069 27.254-14.45 50.337-21.057 45.818-13.113 110.612-21.57 183.244-21.57s137.425 8.457 183.245 21.57c23.083 6.607 39.889 13.988 50.338 21.057 6.438 4.358 8.734 7.337 9.515 8.655-0.781 1.317-3.076 4.296-9.515 8.655-10.449 7.069-27.255 14.45-50.338 21.057-45.82 13.113-110.613 21.57-183.245 21.57s-137.426-8.457-183.244-21.57c-23.084-6.607-39.891-13.988-50.337-21.057-6.441-4.358-8.736-7.337-9.518-8.655zM310.84 744.442c51.602 14.769 121.39 23.558 197.418 23.558s145.818-8.789 197.419-23.558c25.626-7.334 48.235-16.553 65.033-27.918 15.906-10.762 32.474-27.631 32.474-51.319s-16.567-40.556-32.474-51.318c-16.798-11.365-39.407-20.584-65.033-27.918-51.601-14.769-121.391-23.558-197.419-23.558s-145.815 8.789-197.418 23.558c-25.626 7.334-48.237 16.553-65.033 27.918-15.905 10.762-32.474 27.631-32.474 51.318s16.57 40.556 32.474 51.319c16.795 11.365 39.407 20.584 65.033 27.918zM264.84 665.794c0.298-0.711 1.988-3.985 9.857-9.309 10.452-7.072 27.269-14.449 50.362-21.047 45.837-13.097 110.635-21.517 183.198-21.517 72.499 0 137.293 8.64 183.142 21.85 23.1 6.655 39.966 14.068 50.466 21.138 7.646 5.149 9.459 8.336 9.813 9.085 0.422 13.859 11.785 24.965 25.745 24.965 14.225 0 25.758-11.532 25.758-25.757v-158.718c0-23.71-16.559-40.597-32.495-51.379-16.815-11.375-39.445-20.591-65.079-27.913-51.622-14.75-121.408-23.501-197.35-23.501-76.006 0-145.799 8.994-197.404 23.863-25.629 7.381-48.211 16.619-64.977 27.908-15.757 10.611-32.544 27.379-32.544 51.021v158.718c0 14.225 11.532 25.757 25.757 25.757 14.027 0 25.435-11.213 25.75-25.165zM751.671 603.388c-13.474-6.553-29.077-12.24-46.007-17.118-51.605-14.867-121.399-23.863-197.406-23.863-75.942 0-145.729 8.75-197.35 23.499-16.936 4.839-32.56 10.502-46.062 17.069v-95.724c0.384-0.794 2.24-3.968 9.804-9.058 10.499-7.070 27.364-14.485 50.464-21.141 45.853-13.21 110.644-21.85 183.144-21.85 72.563 0 137.361 8.422 183.198 21.517 23.095 6.601 39.91 13.978 50.364 21.047 7.812 5.286 9.536 8.555 9.852 9.297v96.324zM264.84 507.085c0.298-0.708 1.988-3.985 9.857-9.31 10.452-7.070 27.269-14.447 50.362-21.047 45.837-13.094 110.635-21.517 183.198-21.517s137.361 8.422 183.198 21.517c23.095 6.601 39.91 13.978 50.364 21.047 7.868 5.325 9.557 8.602 9.856 9.31 0.316 13.952 11.725 25.165 25.749 25.165 14.225 0 25.758-11.532 25.758-25.758v-158.716c0-23.71-16.559-40.597-32.495-51.379-16.815-11.379-39.445-20.591-65.079-27.917-51.622-14.746-121.408-23.497-197.35-23.497-75.951 0-145.711 8.751-197.295 23.369-25.615 7.258-48.208 16.363-64.992 27.558-15.785 10.526-32.638 27.238-32.638 50.94v159.642c0 14.227 11.532 25.758 25.757 25.758 14.027 0 25.435-11.213 25.75-25.165zM751.671 444.267c-13.504-6.566-29.129-12.228-46.063-17.067-51.622-14.75-121.408-23.501-197.35-23.501s-145.729 8.751-197.35 23.501c-16.936 4.838-32.56 10.5-46.062 17.067v-96.631c0.405-0.815 2.289-3.921 9.71-8.87 10.481-6.993 27.336-14.302 50.449-20.851 45.873-13.001 110.694-21.419 183.252-21.419 72.563 0 137.361 8.422 183.198 21.517 23.095 6.601 39.91 13.978 50.364 21.047 7.812 5.286 9.536 8.55 9.852 9.293v95.915zM264.84 347.439c0.298-0.708 1.988-3.985 9.857-9.31 10.452-7.070 27.269-14.447 50.362-21.047 45.837-13.094 110.635-21.517 183.198-21.517s137.361 8.422 183.198 21.517c23.095 6.601 39.91 13.978 50.364 21.047 7.868 5.325 9.557 8.602 9.856 9.31 0.316 13.952 11.725 25.165 25.749 25.165 14.225 0 25.758-11.533 25.758-25.758v-158.716c0-23.71-16.559-40.597-32.495-51.379-16.815-11.379-39.445-20.591-65.079-27.917-51.622-14.746-121.408-23.497-197.35-23.497s-145.729 8.751-197.35 23.497c-25.635 7.326-48.265 16.538-65.078 27.917-15.936 10.782-32.497 27.669-32.497 51.379v158.716c0 14.225 11.532 25.758 25.757 25.758 14.027 0 25.435-11.213 25.75-25.165zM751.671 284.621c-13.504-6.566-29.129-12.228-46.063-17.067-51.622-14.75-121.408-23.501-197.35-23.501s-145.729 8.751-197.35 23.501c-16.936 4.838-32.56 10.5-46.062 17.067v-95.915c0.317-0.742 2.039-4.006 9.851-9.293 10.452-7.070 27.269-14.447 50.362-21.047 45.837-13.094 110.635-21.517 183.198-21.517s137.361 8.422 183.198 21.517c23.095 6.601 39.91 13.978 50.364 21.047 7.812 5.286 9.536 8.55 9.852 9.293v95.915z" />
<glyph unicode="&#xe947;" glyph-name="Medicine" d="M348.279 768h286.456c6.805 0 13.056 0.001 18.304-0.358 5.641-0.385 11.844-1.262 18.146-3.872 13.615-5.64 24.431-16.457 30.071-30.072 2.611-6.303 3.486-12.505 3.874-18.146 0.354-5.249 0.354-11.499 0.354-18.302v-1.385c0-6.803 0-13.053-0.354-18.302-0.388-5.641-1.263-11.843-3.874-18.146-5.641-13.615-16.457-24.432-30.071-30.072-5.606-2.322-11.136-3.273-16.26-3.725l58.142-47.064c35.371-28.636 55.923-71.715 55.923-117.224v-50.543c0-13.15-10.662-23.812-23.812-23.812-13.154 0-23.817 10.662-23.817 23.812v50.543c0 1.681-0.038 3.354-0.119 5.026h-460.135c-0.097-1.822-0.145-3.648-0.145-5.478v-200.909h246.077c13.15 0 23.812-10.662 23.812-23.817 0-13.15-10.662-23.812-23.812-23.812h-238.807c4-10.086 9.597-19.554 16.649-28.019 12.031-14.434 16.654-19.9 21.579-24.397 15.446-14.093 34.808-23.159 55.523-26.005 6.606-0.905 13.764-0.96 32.557-0.96h112.5c13.15 0 23.812-10.658 23.812-23.812 0-13.15-10.662-23.812-23.812-23.812h-114.243c-16.469-0.004-27.063-0.004-37.29 1.399v0c-30.276 4.156-58.575 17.412-81.149 38.007-7.626 6.959-14.407 15.1-24.948 27.75l-1.117 1.34c-22.587 27.106-34.957 61.269-34.957 96.555v210.492c0 45.815 20.827 89.149 56.604 117.771l58.595 46.876c-5.438 0.412-11.37 1.323-17.394 3.818-13.615 5.64-24.432 16.457-30.072 30.072-2.611 6.303-3.488 12.505-3.872 18.146-0.358 5.249-0.358 11.5-0.358 18.303v0 1.382c0 6.804 0 13.054 0.358 18.303 0.385 5.641 1.262 11.843 3.872 18.146 5.64 13.615 16.457 24.433 30.072 30.072 6.303 2.61 12.505 3.487 18.146 3.872 5.249 0.358 11.499 0.358 18.302 0.358h0.692zM543.322 625.117h-102.865c-23.683 0-29.918-0.31-35.412-2.237s-10.557-5.58-29.051-20.375l-76.304-61.043c-9.692-7.754-17.78-17.085-24.016-27.476h431.244c-6.17 10.403-14.195 19.759-23.821 27.553l-74.85 60.591c-18.577 15.038-23.663 18.752-29.201 20.711-5.534 1.96-11.827 2.276-35.725 2.276zM552.815 672.745h81.229c7.723 0 12.322 0.013 15.753 0.247 2.121 0.145 3.025 0.338 3.26 0.398 1.865 0.803 3.354 2.292 4.156 4.16 0.060 0.234 0.256 1.135 0.401 3.258 0.235 3.429 0.247 8.029 0.247 15.752s-0.013 12.323-0.247 15.752c-0.145 2.122-0.341 3.024-0.401 3.257-0.802 1.868-2.291 3.357-4.156 4.16-0.235 0.060-1.139 0.253-3.26 0.398-3.43 0.234-8.030 0.247-15.753 0.247h-285.765c-7.723 0-12.323-0.013-15.752-0.247-2.122-0.145-3.024-0.339-3.258-0.398-1.868-0.803-3.357-2.292-4.16-4.16-0.059-0.233-0.253-1.135-0.398-3.257-0.234-3.43-0.247-8.029-0.247-15.752s0.013-12.323 0.247-15.752c0.145-2.122 0.338-3.024 0.398-3.258 0.803-1.868 2.292-3.357 4.16-4.16 0.234-0.059 1.135-0.253 3.258-0.398 3.429-0.234 8.029-0.247 15.752-0.247h82.77c2.010 0.005 4.062 0.003 6.161 0.002h109.389c2.121 0.002 4.19 0.003 6.217-0.002zM491.162 450.484c13.15 0 23.812-10.662 23.812-23.817v-39.689h39.693c13.15 0 23.812-10.662 23.812-23.812 0-13.154-10.662-23.817-23.812-23.817h-39.693v-39.689c0-13.15-10.662-23.812-23.812-23.812-13.154 0-23.812 10.662-23.812 23.812v39.689h-39.693c-13.151 0-23.812 10.662-23.812 23.817 0 13.15 10.662 23.812 23.812 23.812h39.693v39.689c0 13.154 10.658 23.817 23.812 23.817zM694.643 293.393c19.136 19.136 52.177 19.452 73.822-2.197 21.645-21.645 21.329-54.682 2.193-73.822l-10.505-10.5c-7.381 12.578-18.057 27.354-33.357 42.65-15.3 15.305-30.076 25.98-42.658 33.361l10.505 10.509zM723.264 175.049c0.597-1.207 1.143-2.351 1.634-3.43l-24.444-24.448c-19.14-19.136-52.177-19.452-73.822 2.197-21.645 21.645-21.333 54.682-2.193 73.822l24.444 24.439c1.079-0.491 2.227-1.037 3.43-1.634 10.249-5.099 24.909-14.251 40.806-30.148s25.045-30.554 30.144-40.798zM802.142 324.877c-38.938 38.933-102.157 41.212-141.175 2.193l-70.204-70.204c-39.023-39.023-36.745-102.242 2.193-141.18 38.933-38.933 102.157-41.212 141.175-2.193l70.204 70.204c39.023 39.023 36.745 102.242-2.193 141.18z" />
<glyph unicode="&#xe948;" glyph-name="Menu" d="M356.579 700.684c-24.425 5.729-49.844 5.729-74.269 0-21.994-5.159-39.168-22.333-44.327-44.327-5.729-24.425-5.729-49.844 0-74.269 5.159-21.995 22.333-39.168 44.327-44.327 24.425-5.729 49.844-5.729 74.269 0 21.995 5.159 39.168 22.333 44.327 44.327 5.729 24.425 5.729 49.844 0 74.269-5.159 21.994-22.333 39.168-44.327 44.327zM267.919 762.038c33.891 7.95 69.162 7.95 103.053 0 45.296-10.625 80.664-45.993 91.288-91.29 7.953-33.891 7.953-69.162 0-103.053-10.624-45.296-45.992-80.664-91.288-91.288-33.891-7.953-69.162-7.953-103.053 0-45.297 10.624-80.664 45.992-91.29 91.288-7.95 33.891-7.95 69.162 0 103.053 10.625 45.296 45.993 80.664 91.29 91.289zM356.579 315.58c-24.425 5.73-49.844 5.73-74.269 0-21.994-5.158-39.168-22.332-44.327-44.326-5.729-24.427-5.729-49.847 0-74.27 5.159-21.995 22.333-39.168 44.327-44.326 24.425-5.73 49.844-5.73 74.269 0 21.995 5.158 39.168 22.332 44.327 44.326 5.729 24.427 5.729 49.843 0 74.27-5.159 21.995-22.333 39.168-44.327 44.326zM267.919 376.935c33.891 7.949 69.162 7.949 103.053 0 45.296-10.624 80.664-45.995 91.288-91.29 7.953-33.89 7.953-69.163 0-103.053-10.624-45.299-45.992-80.666-91.288-91.29-33.891-7.949-69.162-7.949-103.053 0-45.297 10.624-80.664 45.99-91.29 91.29-7.95 33.89-7.95 69.163 0 103.053 10.625 45.295 45.993 80.666 91.29 91.29zM741.705 700.684c-24.427 5.729-49.843 5.729-74.27 0-21.995-5.159-39.168-22.333-44.326-44.327-5.73-24.425-5.73-49.844 0-74.269 5.158-21.995 22.332-39.168 44.326-44.327 24.427-5.729 49.843-5.729 74.27 0 21.995 5.159 39.168 22.333 44.326 44.327 5.73 24.425 5.73 49.844 0 74.269-5.158 21.994-22.332 39.168-44.326 44.327zM653.043 762.038c33.89 7.95 69.163 7.95 103.053 0 45.295-10.625 80.666-45.993 91.29-91.29 7.949-33.891 7.949-69.162 0-103.053-10.624-45.296-45.995-80.664-91.29-91.288-33.89-7.953-69.163-7.953-103.053 0-45.295 10.624-80.666 45.992-91.29 91.288-7.949 33.891-7.949 69.162 0 103.053 10.624 45.296 45.995 80.664 91.29 91.289zM741.705 315.58c-24.427 5.73-49.843 5.73-74.27 0-21.995-5.158-39.168-22.332-44.326-44.326-5.73-24.427-5.73-49.847 0-74.27 5.158-21.995 22.332-39.168 44.326-44.326 24.427-5.73 49.843-5.73 74.27 0 21.995 5.158 39.168 22.332 44.326 44.326 5.73 24.427 5.73 49.843 0 74.27-5.158 21.995-22.332 39.168-44.326 44.326zM653.043 376.935c33.89 7.949 69.163 7.949 103.053 0 45.295-10.624 80.666-45.995 91.29-91.29 7.949-33.89 7.949-69.163 0-103.053-10.624-45.299-45.995-80.666-91.29-91.29-33.89-7.949-69.163-7.949-103.053 0-45.295 10.624-80.666 45.99-91.29 91.29-7.949 33.89-7.949 69.163 0 103.053 10.624 45.295 45.995 80.666 91.29 91.29z" />
<glyph unicode="&#xe949;" glyph-name="Messages" d="M446.703 704.5h130.594c58.351 0 104.572 0.001 140.74-4.862 37.227-5.005 67.358-15.55 91.123-39.313 23.761-23.762 34.304-53.893 39.309-91.119 4.864-36.172 4.864-82.392 4.864-140.743v-3.584c0-58.351 0-104.572-4.864-140.745-5.005-37.227-15.548-67.358-39.309-91.119-23.765-23.761-53.897-34.308-91.123-39.313-36.169-4.864-82.389-4.86-140.74-4.86h-130.594c-58.351 0-104.57-0.004-140.742 4.86-37.227 5.005-67.357 15.552-91.12 39.313s-34.307 53.892-39.312 91.119c-4.863 36.173-4.863 82.394-4.862 140.745v3.584c0 58.351-0.001 104.57 4.862 140.743 5.005 37.227 15.55 67.357 39.312 91.119s53.893 34.307 91.12 39.313c36.172 4.863 82.391 4.863 140.742 4.862zM312.307 652.435c-31.945-4.295-50.35-12.349-63.788-25.787s-21.492-31.843-25.787-63.788c-4.387-32.631-4.438-75.645-4.438-136.189s0.050-103.561 4.438-136.188c4.295-31.949 12.349-50.351 25.787-63.791 13.438-13.436 31.843-21.491 63.788-25.788 32.63-4.386 75.644-4.437 136.188-4.437h127.010c60.544 0 103.556 0.051 136.188 4.437 31.945 4.297 50.351 12.352 63.787 25.788 13.44 13.44 21.495 31.842 25.788 63.791 4.386 32.627 4.437 75.644 4.437 136.188s-0.051 103.558-4.437 136.189c-4.292 31.945-12.348 50.35-25.788 63.788-13.436 13.437-31.842 21.492-63.787 25.787-32.631 4.387-75.644 4.438-136.188 4.438h-127.010c-60.544 0-103.558-0.051-136.188-4.438zM303.194 568.924c8.42 10.103 23.436 11.469 33.54 3.049l68.549-57.124c29.623-24.685 50.188-41.769 67.553-52.939 16.811-10.807 28.207-14.438 39.164-14.438s22.353 3.631 39.164 14.438c17.365 11.17 37.931 28.254 67.554 52.939l68.548 57.124c10.103 8.42 25.122 7.055 33.54-3.049s7.053-25.12-3.051-33.54l-69.743-58.119c-28.143-23.454-50.953-42.462-71.087-55.411-20.971-13.491-41.395-22.012-64.926-22.012s-43.955 8.521-64.926 22.012c-20.134 12.949-42.944 31.957-71.088 55.411l-69.743 58.119c-10.103 8.42-11.469 23.436-3.049 33.54z" />
<glyph unicode="&#xe94a;" glyph-name="Minimalistic-Magnifer-Bug" d="M496.23 715.973c-151.069 0-273.536-122.467-273.536-273.536 0-151.074 122.467-273.54 273.536-273.54 151.074 0 273.54 122.466 273.54 273.54 0 151.069-122.466 273.536-273.54 273.536zM170.667 442.437c0 179.803 145.76 325.564 325.564 325.564 179.806 0 325.568-145.76 325.568-325.564 0-179.806-145.762-325.568-325.568-325.568-179.803 0-325.564 145.762-325.564 325.568zM402.523 549.912c22.113 27.254 55.875 44.672 93.708 44.672 37.828 0 71.595-17.418 93.705-44.672l20.787 10.393c12.851 6.425 28.476 1.217 34.901-11.633s1.216-28.476-11.635-34.901l-20.762-10.381c2.359-9.417 3.61-19.268 3.61-29.414v-5.521h21.286c14.366 0 26.014-11.644 26.014-26.010 0-14.37-11.648-26.014-26.014-26.014h-21.286v-5.521c0-10.146-1.25-19.998-3.61-29.414l20.762-10.381c12.851-6.426 18.061-22.050 11.635-34.901s-22.050-18.057-34.901-11.635l-20.787 10.394c-22.11-27.251-55.876-44.668-93.705-44.668-37.833 0-71.595 17.417-93.708 44.668l-20.787-10.394c-12.85-6.421-28.476-1.216-34.901 11.635s-1.216 28.476 11.633 34.901l20.764 10.381c-2.359 9.417-3.612 19.268-3.612 29.414v5.521h-21.284c-14.367 0-26.013 11.644-26.013 26.014 0 14.366 11.647 26.010 26.013 26.010h21.284v5.521c0 10.146 1.253 19.998 3.612 29.414l-20.764 10.381c-12.85 6.425-18.059 22.051-11.633 34.901s22.051 18.059 34.901 11.633l20.787-10.393zM427.648 410.91c0-28.668 17.591-53.227 42.569-63.475v100.527h-42.569v-37.052zM432.755 499.99h126.95c-10.249 24.976-34.807 42.567-63.475 42.567s-53.231-17.591-63.475-42.567zM564.813 447.962h-42.569v-100.527c24.977 10.249 42.569 34.807 42.569 63.475v37.052zM745.847 192.798c10.159 10.159 26.633 10.159 36.791 0l63.061-63.066c10.159-10.159 10.159-26.628 0-36.787s-26.628-10.159-36.787 0l-63.066 63.066c-10.159 10.159-10.159 26.628 0 36.787z" />
<glyph unicode="&#xe94b;" glyph-name="Mirror" d="M286.647 531.521c14.368 0 26.014-11.647 26.014-26.015v-299.558c0-26.095-8.464-51.49-24.122-72.367l-28.379-37.837c-8.62-11.494-24.926-13.824-36.42-5.205-11.494 8.623-13.823 24.93-5.203 36.42l28.379 37.841c8.904 11.87 13.717 26.308 13.717 41.148v299.558c0 14.368 11.647 26.015 26.014 26.015zM728.102 531.521c14.366 0 26.014-11.647 26.014-26.015v-299.558c0-14.839 4.813-29.278 13.717-41.148l28.378-37.841c8.619-11.49 6.289-27.797-5.201-36.42-11.494-8.619-27.802-6.289-36.42 5.205l-28.382 37.837c-15.659 20.877-24.119 46.272-24.119 72.367v299.558c0 14.368 11.644 26.015 26.014 26.015zM507.383 715.972c-85.003 0-163.178-88.517-163.178-210.478 0-121.963 78.175-210.479 163.178-210.479 85.009 0 163.183 88.516 163.183 210.479 0 121.961-78.174 210.478-163.183 210.478zM292.177 505.494c0 139.261 91.235 262.507 215.206 262.507 123.977 0 215.211-123.245 215.211-262.507 0-139.264-91.234-262.507-215.211-262.507-123.971 0-215.206 123.243-215.206 262.507zM728.098 148.386h-441.452v52.032h441.452v-52.032zM515.93 651.5c6.733 12.693 22.477 17.528 35.17 10.798 40.085-21.251 66.313-68.847 74.257-121.389 2.15-14.206-7.625-27.464-21.828-29.613-14.208-2.146-27.465 7.627-29.615 21.832-6.473 42.807-26.671 72.327-47.185 83.202-12.693 6.73-17.527 22.476-10.799 35.169z" />
</font>
</defs>
</svg>
